Последние новости

Сломанные крылья (Джебран Халиль) [2012, Современная арабская проза, аудиокнига, MP3, 192kbps(VBR), Nikosho]
2014-07-22 20:51
Сломанные крылья
Формат: аудиокнига, MP3, 192kbps(VBR)
Автор: Джебран Халиль
Год выпуска: 2012
Жанр: Современная арабская проза
Издательство: Аудиокнига своими руками
Исполнитель: Nikosho
Продолжительность: 03:07:28




Описание: Халиль Джебран - ливано-американский философский эссеист, романист, мистический поэт и художник. Творчество Джебрана Халиля Джебрана является синтезом культур Востока и Запада, и занимает особое место в истории арабской литературы и философской мысли XX века. Отличительной его чертой является склонность проникнуть в состояние любого читателя, таким образом проявляя всеобщий синтез и универсализм в философском мышлении и мировоззрении. Именно благодаря этому любой сегодняшний читатель каких бы ни было культуры и мировоззрения способен в его произведениях найти отражение своих собственных идей, принципов, душевных поисков и переживаний.
Очарование творений Джебрана завораживает. Это - не проза, и даже не то, что обычно называют поэзией. Это - молитвенное взыскание той горней красоты бытия, которое единственно воплощает в себе высшую правду человеческой истории...





Микола Микенчик (проект Славы Корецкого) - Сердючая [2004, Шансон, MP3]
2014-07-22 20:50
Микола Микенчик (проект Славы Корецкого) - Сердючая
Формат: MP3, tracks, 256kbps
Год выпуска: 2004
Страна: Россия
Жанр: Шансон
Продолжительность: 00:45:52
Описание:

01. На троих
02. Сердючая
03. Мартовский кот
04. Я вернулся домой
05. Дольки апельсина
06. В армии
07. Лимончики
08. Песня про сало
09. Моя герла
10. Бутылка вина
11. На свадьбе
12. Королева сердца
13. На троих (караоке)
14. На свадьбе (караоке)


Доп. Информация :

В записи принимали участие:
М. Мекенчик (Слава Корецкий) - слова, музыка, вокал
А. Гетман - аранжировки,звукорежиссёр
И. Засульская,А.Ильчиш,К.Суслов - бэк-вокал
В. Котляр - фото
Марина, Василий, Алексей - модели

Всё и сразу (Роман Каримов) [2014, комедия, криминал, WEB-DLRip]
2014-07-22 20:48
Всё и сразу
Формат: WEB-DLRip, AVI, DivX, AC3
Режиссер: Роман Каримов
Жанр: комедия, криминал
Продолжительность: 01:34:53
Год выпуска: 2014
Выпущено: Россия / Инвада фильм

В ролях: Никита Ост, Антон Шурцов, Александр Паль, Юлия Хлынина, Артем Костюнёв, Андрей Муравьёв, Александр Шаляпин, Андрей Галактионов, Игорь Тарасевич, Ольга Возовая

Описание: Тима и Дэн — друзья-неудачники из провинциального городка. Учеба позади, работать не тянет, девушек нет. На пути к мечте (выбиться в люди) и в надежде получить всё и сразу (без особого напряга) парни берутся выполнить задание местного бандюка и отправляются на дело, прихватив с собой автослесаря Жору, такого же полного лузера.

На кону внушительная сумма, главное — не облажаться и чётко инсценировать ограбление своего же, подставного наркокурьера. Но вот засада: роль курьера случайно достаётся честному дембелю Ване, который оказывается не в курсе схем и обещаний. И теперь в водовороте погонь, потасовок и перестрелок всем четверым нужно по-настоящему напрячься, чтобы грамотно разрулить ситуацию. И получить ВСЁ и СРАЗУ.




Видео: 720x400(16:9), 25fps, Xvid MPEG-4 ~1815 kbps avg, 0.25 bit/pixel
Аудио: 48,1kHz, AC3 Dolby Digital, (6 ch), ~384kbps avg

Пророк (Джебран Халиль) [2014, Философия, эзотерика, аудиокнига, MP3, 128kbps, BIGBAG]
2014-07-22 20:47
Пророк
Формат: аудиокнига, MP3, 128kbps
Автор: Джебран Халиль
Год выпуска: 2014
Жанр: Философия, эзотерика
Издательство: Аудиокнига своими руками
Исполнитель: BIGBAG
Продолжительность: 01:39:08




Описание: Маленькое по объему, но при этом монументальное произведение. Написанное в начале 20 века, оно не теряет своей актуальности и сегодня, что говорит о несомненной гениальности автора. Ведь до сих пор цитаты из этого произведения украшают стены общественных и ритуальных зданий во многих странах. Сам Халиль Джебран считал «Пророка» лучшей своей работой и трудился над ним почти всю жизнь. Он писал: «Я думаю, что „Пророк“ всегда был во мне, еще с тех пор, когда я жил рядом с горой Ливан».

Особенная художественная мистико-философская структура, выразительный язык, чувствуется, что продумано и взвешено каждое слово. О вечных человеческих ценностях, о вечных вопросах о жизни, смерти, любви, детях и т.д. , при этом нет ничего лишнего, все сказано минимумом слов.





Artificial Girl 3 [2008, Simulator, erotic, 3D]
2014-07-22 20:46
Artificial Girl 3
Год выпуска: 2008
Жанр: Simulator, erotic, 3D
Разработчик: Illusion
Издательство: Illusion
Язык интерфейса: Русский, английский
Платформа: PC

Системные требования:
Операционная система: Windows XP/Vista/7/8
Процессор: Pentium 4 2 ГГц
Память: 512 МБ
Видеокарта: 64 МБ, DirectX 9.0
Аудиокарта: Совместимая с DirectX 9.0c
Свободное место на ЖД: 10 ГБ

Описание: Замечательная жизнь с прекрасными девочками. Просто наслаждайся медленной и мирной жизнью с ними. Это 3D симулятор свиданий . Вы чувствуете жизнь, приятно проводите время, находите кое-что удобным....Artificial Girl делится на две части. Первая это генератор девочек, где ты настраиваешь внешность, голос и выбираешь черты характера однако более чем 3 - вероятность того что девочка будет либо нимфоманкой, либо неприступной впринципе) плюс настраиваешь одежду на все случаи жизни.Вторая часть Artificial Girl 3 это сама игра. Есть маленький кусочек города, ваш дом, школа, особняк, набережная, храм, город, и ещё один дом в японском стиле. В зависимости от того какой характер вы дали девушке зависит метод её соблазнения, с одними нужно проводить много времени, а к другим можно не церемонясь нагло приставать. Также девушек можно заставить ревновать или возбудить, в этом случае они сами будут к вам приставать. В этом городе девушки живут своей жизнью, спят, гуляют, едят, и если вы долго не будете с ними контактировать то они могут вас забыть. К сожалению в игре может одновременно находится не более пяти девушек.

Установка

1. Смонтируйте образ диска в программе Daemon Tools или аналогичной, поддерживающей монтирование в виртуальный привод образов дисков формата iso.
2. Установите игру, следуя инструкциям программы-установки.
3. Играть

Управление игры:
- На клавишах WASD ходим, мышком вертим камерой.
- Левая кнопка мыши сесть/лечь
- Правая кнопка мыши взаимодействия с девушкой (нужно стоять рядом с ней), позвать ее

Во время секса:
- Ctrl + левая кнопка мыши - поворот камерой
- Удержание левой кнопки с какимто значком - взаимодейтсвие:
- если грибок, то перетаскиванием мышки с зажатой левой кнопкой можно поменять позу

- Если появляются ?, Y, перевернутая Z, то это значит, что тебе спрашивают как поступать дальше и что бы ты хотел сделать, в разных ситуациях по разному - надеть презерватив, не надевать и всякое разное,вообщем это зависит от ситуации в которой ты находишься с девушкой, ситуаций там всяких много, ответы даешь управляя мышкой, левая кнопка -да, правая кнопка - нет.
- Если нажать сочетание клавишь Ctrl + H, то появятся клавиши управления субтитрами
Дополнительно

Внимание: Возрастное ограничение 18+

Особенности игры:
- Ничего не вырезано/не перекодировано
- В комплекте есть несколько модов (некоторые установлены)
- Установлены ретекстуры
- Интерфейс игры - Русский (включая русские субтитры)
- Интерфейс создания персонажей - Русский и местами английский
Русификация

Язык интерфейса: Русский, английский
Язык озвучки: Японский

Психосоматика. Динамо (ТК "ТВ-3") [2014, документальный, SATRip]
2014-07-22 20:38
Психосоматика. Динамо

Перевод: Не требуется, cубтитры: отсутствуют
Формат: SATRip, AVI, DivX, MP3
Страна: Россия
Режиссер: ТК "ТВ-3"
Жанр: документальный
Продолжительность: 00:26:53
Год выпуска: 2014

Описание: У Яны немеют руки. Органических изменений, которые могли бы вызвать такой симптом нет. Доктор выясняет, что у Яны конверсионное расстройство -- онемение появляется из-за какой-то подавленной эмоции или страха. Яна предполагает, что она боится за мать -- после смерти отца мать чувствует себя очень одинокой, а теперь Яна собирается выйти замуж и переехать к мужу в другой город.

Видео: 720x400 (1.80:1), 25 fps, DivX Codec 6.8.5/6.9.1 ~1498 kbps avg, 0.21 bit/pixel
Аудио: 48 kHz, MPEG Layer 3, 2 ch, ~128.00 kbps avg

Курортная полиция (1-12 серии из 20) (Сергей Виноградов) [2014, детектив, криминал, SATRip]
2014-07-22 20:38
Курортная полиция (1-12 серии из 20)

Перевод: Не требуется, Субтитры: отсутствуют
Формат: SATRip, AVI, DivX, MP3
Страна: Россия, Украина, ООО «Авиатор Продакшн»
Режиссер: Сергей Виноградов
Жанр: детектив, криминал
Всего серий: 20
Продолжительность: 12 x ~ 00:45:00
Год выпуска: 2014

В ролях: Ирина Линдт, Юрий Кузнецов, Денис Васильев, Андрей Стоянов, Валентин Смирнитский, Эммануил Виторган, Алексей Королёв, Сергей Фролов, Николай Завгородний, Диана Малая, Станислав Ангелов, Наталья Ковалёва, Ольга Сулименко, Роман Лукьянов, Сергей Деньга, Алина Егорова, Алёна Андрюшова, Юлия Амелькина, Павел Шмарёв

Описание: Курортная полиция — специальное полицейское подразделение, призванное «улучшить морально-этический климат» в курортной зоне, а проще говоря — утихомирить мелких жуликов всех мастей, которые каждый сезон слетаются на морское побережье с первыми лучами майского солнца. Условия отбора кандидатов в курортную полицию были просты: сотрудники должны иметь достаточную квалификацию и не быть знакомы друг с другом, чтобы исключить вероятность ненужных сговоров. Пробное подразделение сформировали из трех поколений полицейских из разных регионов России.

Рейтинг и доп.инфа:


Видео: 720x448 (1.61:1), 25 fps, DivX Codec 6.8.5/6.9.1 ~1500 kbps avg, 0.19 bit/pixel
Аудио: 48 kHz, MPEG Layer 3, 2 ch, ~128.00 kbps avg

Внимание! Раздача ведётся путём добавления новых серий
Внимание! Раздача ведётся путём добавления новых серий; при каждом добавлении создаётся новый торрент. Чтобы начать докачку новой серии, пользователям необходимо сделать следующее:
(1) остановить скачивание, раздачу,
(2) удалить старый торрент у себя из клиента (старые серии удалять не надо),
(3) скачать новый торрент и запустить его у себя в клиенте вместо старого, при этом указать клиенту путь в старую папку куда и должно происходить скачивание новых серий.

Ваш клиент при этом должен произвести хеширование (проверку) старой папки (если не производит сами - помогите ему сделать это), и будет докачивать только те серии которых у вас ещё нет. Старые серии при этом не удаляются, а продолжают раздаваться!

Eсли вы уже удалили старые серии, то предотвратить повторную закачку старых серий можно, отжав галочку в соответствующих местах при запуске нового торрента. По возможности, желательно не удалять старые серии как можно дольше чтобы релизёр не столько продолжал раздавать старые серии, а смог сконцентрироваться на новых.

Наступление ополченцев
2014-07-22 20:34
Видео с передовой.

Три звезды (1-11 серии из 30 ) (Мичислав Юзовский, Сергей Лесогоров) [2014, мелодрама, SATRip]
2014-07-22 20:25
Три звезды (1-11 серии из 30)

Перевод: Не требуется, Субтитры: отсутствуют
Формат: SATRip, AVI, XviD, MP3
Страна: Россия, DixiMedia по заказу НТВ
Режиссер: Мичислав Юзовский, Сергей Лесогоров
Жанр: мелодрама
Всего серий: 30
Продолжительность: 11 х ~ 00:45:00
Год выпуска: 2014

В ролях: Анна Данькова, Иван Колесников, Ярослав Леонов, Максим Туранцев, Владимир Тебенко, Павел Мисаилов, Александр Лырчиков, Всеволод Макаров, Алла Подчуфарова, Лада Чернова, Алина Стеблюк, Анна Кузина, Юлия Юрченко, Полина Уварова, Евгений Дакот, Анастасия Немец, Дария Тюрина, Сергей Николаев, Александр Пугачёв, Ирина Бероева, Денис Варенов, Ника Балина, Надежда Иванко, Марина Дианова, Денис Давыдов, Евграф Прохоров, Юлия Минаковская, Елена Панджариди, Светлана Фролова, Игорь Верста, Алина Хруник, Артем Лысков, Артём Маркарьян, Екатерина Мадалинская, Александра Булычёва

Описание: Брат и сестра Белянкины с детства недолюбливали друг друга. Они росли в неполной семье, вечно и во всем соревновались и вечно были всем недовольны. Сейчас Славе 31 год, он образованный и неглупый, однако, не найдя своего места под солнцем, живет одним днём. Марина, старшая сестра, страдает комплексом «ранней звезды». В 20 лет она была ведущей на одном из первых музыкальных каналов, ее узнавала вся страна. Сейчас ей 36, на телевидении лет 15 она уже никому не нужна. Марина работает где придется, продолжая мечтать о голубом экране. Вдруг Белянкины получают известие о трагической гибели отца, который бросил их много лет назад. Так как с ним в аварии погибла и его новая жена, а завещания не было, Слава и Марина оказываются единственными наследниками и получают под своё управление небольшую гостиницу в одном из районов Москвы. Первое желание брата и сестры - продать бизнес и разделить деньги - тут же разбивается вдребезги, так как выясняется, что есть и третий наследник. У их отца остался ещё один сын от нового брака, 15-ти летний паренек по имени Макс. Мало того что Слава и Марина должны управлять гостиницей до того момента, пока Максу не исполнится 18 лет, они ещё и должны стать опекунами мальчика. И каким-то загадочным образом три звезды этой гостиницы объединяют судьбы троих членов одной, давно разрушенной семьи.

Рейтинг и доп.инфа:


Видео: 720x400 (1.80:1), 25 fps, XviD build 50 ~1399 kbps avg, 0.19 bit/pixel
Аудио: 48 kHz, MPEG Layer 3, 2 ch, ~192.00 kbps avg

Внимание! Раздача ведётся путём добавления новых серий
Внимание! Раздача ведётся путём добавления новых серий; при каждом добавлении создаётся новый торрент. Чтобы начать докачку новой серии, пользователям необходимо сделать следующее:
(1) остановить скачивание, раздачу,
(2) удалить старый торрент у себя из клиента (старые серии удалять не надо),
(3) скачать новый торрент и запустить его у себя в клиенте вместо старого, при этом указать клиенту путь в старую папку куда и должно происходить скачивание новых серий.

Ваш клиент при этом должен произвести хеширование (проверку) старой папки (если не производит сами - помогите ему сделать это), и будет докачивать только те серии которых у вас ещё нет. Старые серии при этом не удаляются, а продолжают раздаваться!

Eсли вы уже удалили старые серии, то предотвратить повторную закачку старых серий можно, отжав галочку в соответствующих местах при запуске нового торрента. По возможности, желательно не удалять старые серии как можно дольше чтобы релизёр не столько продолжал раздавать старые серии, а смог сконцентрироваться на новых.

Подробности. Выпуски за июль 2014 / Подробиці (добавлен эфир от 21.07.2014) [2014, документальный, информационная программа, DVBRip]
2014-07-22 20:22
Подробности. Выпуски за июль 2014 / Подробиці (добавлен эфир от 21.07.2014)
Язык: Русский (периодически звучит украинская речь), cубтитры: отсутствуют
Формат: DVBRip, MPEG2, MPEG2, MP2
Страна: Украина, телекомпания "Интер"
Жанр: документальный, информационная программа
Продолжительность: 21 х ~ 00:45:00
Год выпуска: 2014

Описание: Это информационная программа о самых интересных новостях в Украине и на планете: политика, экономика, культура, спорт и светская хроника.

Видео: 720х576 (1.25:1), 25,000 fps, MPEG-2, ~2888 kbps avg, 0.285 bit/pixel
Аудио: 48 kHz, MPEG Layer 2, 2 ch, ~192.00 kbps avg
Тех.данные всех выпусков идентичны

Раскрыть
Внимание! Раздача ведётся путём добавления новых серий; при каждом добавлении создётся новый торрент. Чтобы начать докачку новой серии, пользователям необходимо сделать следующее:
(1) остановить скачивание,
(2) удалить старый торрент у себя из клиента (старые серии удалять не надо),
(3) скачать новый торрент и запустить его у себя в клиенте вместо старого, при этом указать клиенту путь в старую папку куда и должно происходить скачивание новых серий.

Ваш клиент при этом должен произвести хеширование (проверку) старой папки (если не производит сам - помогите ему сделать это), и будет докачивать только те серии которых у вас ещё нет. Старые серии при этом не удаляются, а продолжают раздаваться!

Eсли вы уже удалили старые серии, то предотвратить повторную закачку старых серий можно, отжав галочку в соответсвующих местах при запуске нового торрента. По возможности, желательно не удалять старые серии как можно дольше чтобы релизёр не столько продолжал раздавать старые серии, а смог сконцентрироваться на новых.
MediaInfo

Complete name : D:\Мои раздачи 07.2014\Podrobnosti.iul` 2014.[tfile.ru]\208 - Подробности_01.07.2014.mpg
Format : MPEG-PS
File size : 1.06 GiB
Duration : 48mn 15s
Overall bit rate mode : Variable
Overall bit rate : 3 143 Kbps

Video #224
ID : 224 (0xE0)
Format : MPEG Video
Format version : Version 2
Format profile : Main@Main
Format settings, BVOP : Yes
Format settings, Matrix : Custom
Format settings, GOP : Variable
Duration : 48mn 15s
Bit rate mode : Variable
Bit rate : 2 888 Kbps
Maximum bit rate : 15.0 Mbps
Width : 704 pixels
Height : 576 pixels
Display aspect ratio : 4:3
Frame rate : 25.000 fps
Standard : PAL
Color space : YUV
Chroma subsampling : 4:2:0
Bit depth : 8 bits
Scan type : Interlaced
Scan order : Top Field First
Compression mode : Lossy
Bits/(Pixel*Frame) : 0.285
Time code of first frame : 00:00:00:00
Time code source : Group of pictures header
Stream size : 997 MiB (92%)

Audio #192
ID : 192 (0xC0)
Format : MPEG Audio
Format version : Version 1
Format profile : Layer 2
Duration : 48mn 15s
Bit rate mode : Constant
Bit rate : 192 Kbps
Channel(s) : 2 channels
Sampling rate : 48.0 KHz
Compression mode : Lossy
Stream size : 66.3 MiB (6%)

Новенькая, 3 сезон 1-23 серии из 23 / New Girl [Ozz] (Джейк Кэздан) [2013-2014, комедия, WEB-DLRip, P2, SUB ]
2014-07-22 20:15
Новенькая, 3 сезон 1-23 серии из 23 / New Girl
Перевод: Профессиональный двухголосый, cубтитры: Русские, английскиe
Слоган: «Мальчики будут мальчиками. Джесс будет Джесс»
Формат: WEB-DLRip, AVI, XviD, AC3
Страна: США, Fox
Режиссер: Джейк Кэздан
Жанр: комедия
Всего серий: 23
Продолжительность: 23 x ~ 00:24:00
Год выпуска: 2013-2014

В ролях: Зои Дешанель, Дэймон Уайанс мл., Джэйк М. Джонсон, Джиллиан Вигмэн, Ханна Симона, Макс Гринфилд, Мэри Элизабет Эллис, Стив Баннос, Хейли Норман, Джек Янг

Описание: Комедия о сексуальных отношениях мужчин и женщин. В центре сюжета — Джесс, оптимистичная, но несчастная в любви учительница начальной школы, которая после последнего разрыва въезжает в квартиру, где уже живут три парня.

Рейтинг:

Видео: 720x400 (1.80:1), 23.976 fps, XviD MPEG-4 ~1998 kbps avg, 0.29 bit/pixel
Аудио #1 Rus: 48 kHz, AC3 Dolby Digital, 3/2 (L,C,R,l,r) + LFE ch, ~384 kbps
Аудио #2 Eng: 48 kHz, AC3 Dolby Digital, 3/2 (L,C,R,l,r) + LFE ch, ~384 kbps

Озвучка:


Дивергент / Divergent (Нил Бёргер) [2014, фантастика, мелодрама, приключения, WEB-DLRip 1080p] DUB (iTunes)
2014-07-22 20:11
Дивергент / Divergent
Перевод: Профессиональный (полное дублирование) (iTunes)
Субтитры: отсутствуют
Формат: WEB-DLRip, MKV, H.264, AC3
Страна: США
Режиссер: Нил Бёргер
Жанр: фантастика, мелодрама, приключения
Продолжительность: 02:13:57
Год выпуска: 2014

В ролях: Шейлин Вудли, Тео Джеймс, Джай Кортни, Кейт Уинслет, Зои Кравиц, Майлз Теллер, Эшли Джадд, Тони Голдуин, Мэгги Кью, Рэй Стивенсон

Описание: Действие развивается на Земле в будущем, в деспотичном Чикаго. Все подростки, достигшие 16 лет, обязаны выбрать одну из пяти фракций и присоединиться к ней на всю оставшуюся жизнь. Каждая фракция представляет определенное качество: Искренность, Отречение, Бесстрашие, Дружелюбие и Эрудиция.

Рейтинг на IMDb: 7.4/10
Рейтинг MPAA: PG-13
Рейтинг на КиноПоиск.Ru: 7.177

Видео: 1920x1080p (16:9), 25 fps, AVC MPEG-4 (x264), High@L4.0 ~4 912 kbps avg, 0.095 Bits/(Pixel*Frame)
Аудио: Русский: 48 kHz, AC3, 6 ch, ~384 kbps avg, [Профессиональный (полное дублирование)] (iTunes)

Слоган: «Ты опасен, если ты другой»

MediaInfo

General
Complete name : E:\Divergent\divergent.mkv
Format : Matroska
Format version : Version 2
File size : 5.06 GiB
Duration : 2h 13mn
Overall bit rate : 5 403 Kbps
Movie name : Divergent
Encoded date : UTC 2014-07-22 16:51:18
Writing application : mkvmerge v3.3.0 ('Language') built on Mar 24 2010 14:59:24
Writing library : libebml v0.8.0 + libmatroska v0.9.0

Video
ID : 1
Format : AVC
Format/Info : Advanced Video Codec
Format profile : High@L4.0
Format settings, CABAC : Yes
Format settings, ReFrames : 4 frames
Codec ID : V_MPEG4/ISO/AVC
Duration : 2h 13mn
Bit rate : 4 912 Kbps
Width : 1 920 pixels
Height : 1 080 pixels
Display aspect ratio : 16:9
Frame rate mode : Constant
Frame rate : 25.000 fps
Color space : YUV
Chroma subsampling : 4:2:0
Bit depth : 8 bits
Scan type : Progressive
Bits/(Pixel*Frame) : 0.095
Stream size : 4.60 GiB (91%)
Title : Divergent (2014)
Default : Yes
Forced : No
Color primaries : BT.709
Transfer characteristics : BT.709
Matrix coefficients : BT.709

Audio
ID : 2
Format : AC-3
Format/Info : Audio Coding 3
Mode extension : CM (complete main)
Format settings, Endianness : Big
Codec ID : A_AC3
Duration : 2h 13mn
Bit rate mode : Constant
Bit rate : 384 Kbps
Channel(s) : 6 channels
Channel positions : Front: L C R, Side: L R, LFE
Sampling rate : 48.0 KHz
Bit depth : 16 bits
Compression mode : Lossy
Stream size : 368 MiB (7%)
Title : Dubbing (iTunes)
Language : Russian
Default : Yes
Forced : No

Menu
00:00:00.000 : en:00:00:00.000
00:07:13.000 : en:00:07:13.000
00:12:11.000 : en:00:12:11.000
00:17:35.000 : en:00:17:35.000
00:22:33.000 : en:00:22:33.000
00:29:06.000 : en:00:29:06.000
00:33:58.000 : en:00:33:58.000
00:39:25.000 : en:00:39:25.000
00:43:45.000 : en:00:43:45.000
00:49:38.000 : en:00:49:38.000
00:54:40.000 : en:00:54:40.000
00:59:37.000 : en:00:59:37.000
01:03:48.000 : en:01:03:48.000
01:10:19.000 : en:01:10:19.000
01:14:42.000 : en:01:14:42.000
01:20:07.000 : en:01:20:07.000
01:25:03.000 : en:01:25:03.000
01:32:05.000 : en:01:32:05.000
01:38:01.000 : en:01:38:01.000
01:43:31.000 : en:01:43:31.000
01:49:30.000 : en:01:49:30.000
01:53:59.000 : en:01:53:59.000
01:58:26.000 : en:01:58:26.000
02:03:56.000 : en:02:03:56.000

Агент паранойи / Paranoia Agent / Mousou Dairinin (Кон Сатоси) [TV][1-13 из 13][RAW][RUS(ext)+JAP+SUB][2004, драма, триллер, ужасы, BDRip] [1080p]
2014-07-22 20:09
Агент паранойи / Paranoia Agent / Mousou Dairinin
Перевод:

  • Профессиональный (многоголосый, закадровый) MC Entertainment
  • Любительский (многоголосый, жен.) Евгении Лурье
Субтитры: русские, английские
Хардсаб: отсутствует

Формат: BDRip, MKV, H.264, FLAC
Страна: Япония
Режиссер: Кон Сатоси
Жанр: драма, триллер, ужасы
Продолжительность: ТВ (13 эп.), 25 мин.
Год выпуска: 2004
Озвучка: MC Entertainment / Евгении Лурье

Студия:

Описание: По Токио прокатилась волна, казалось бы, случайных избиений простых граждан, заканчивающихся серьёзными ранениями пострадавших. Описания нападавшего во всех случаях совпадают - подросток в бейсбольной шапочке, разъезжающий на золотистых роликовых коньках и вооружённый позолоченной же гнутой бейсбольной битой. Два опытных детектива, назначенных найти и задержать преступника, чувствуют, что существует незримая связь между жертвами, но никак не могут её уловить. Чем глубже они погружаются в расследование этого дела, тем безумней и опасней оно оборачивается. Будет ли задержан серийный маньяк, прежде чем убьёт кого-то? Кто станет следующей жертвой его золотой биты?



Видео: 1920x1080 (16:9), 23.976 fps, MPEG-4 AVC (x264), High 10@L4.1 ~5000 kbps avg, 10 bits
Аудио#1: Jap FLAC, 48000Hz, ~632 Kbps, 2ch
Аудио#2: Rus AC3, 48000Hz, 384 Kbps, 6ch (MC Entertainment ) - внешним файлом
Аудио#3: Rus AC3, 48000Hz, ~440 Kbps, 2ch (Е.Лурье) - внешним файлом

Перевод на русский: Bella & Praded | Перевод на английский: a4e | Энкод: pavel-b
Инструкция по просмотру
Перед просмотром настоятельно рекомендую обновить кодек (скачать его можно тут).


* Чтобы смотреть с русской озвучкой, необходимо из директории (папки) "RUS Sound ####" переписать файлы в папку, где находятся видеофайлы. Далее, следует запустить плеер и переключиться на MKA-дорожку. Например, в MPC это можно сделать через меню Play -> Audio -> (название дорожки).mka (или клавишей "А", на латинской раскладке).
В KMPlayer: Нажимаешь на значок кмплеер (в левом верхнем углу) там есть меню "загрузить внешнюю аудиодорожку..."после кликаешь правой кнопкой мыши по экрану плеера и заходишь в фильтры/KMP Stream Switcher (Copy Transform) и там выбираешь вторую дорожку.


* Чтобы смотреть с субтитрами, необходимо из папки "RUS Subs > ####" переписать файлы в папку, где находятся видеофайлы. В большинстве плееров, одноимённые субтитры подключатся автоматически.

Если у вас возникни какие то проблемы с подключением озвучки или субтитров читайте эту тему.
Список эпизодов
01. Enter Lil' Slugger
02. The Golden Shoes
03. Double Lips
04. A Man's Path
05. The Holy Warrior
06. Fear Of A Direct Hit
07. MHz
08. Happy Family Planning
09. ETC
10. Mellow Maromi
11. No Entry
12. Radar Man
13. The Final Episode
MediaInfo
General
Unique ID : 209687043879889105070146074878633635362 (0x9DC04173F8A84343B0834A2F8988EE22)
Complete name : D:\Агент паранойи [Mousou Dairinin] BDRip-1080p\Mousou Dairinin 06.mkv
Format : Matroska
Format version : Version 2
File size : 989 MiB
Duration : 24mn 32s
Overall bit rate mode : Variable
Overall bit rate : 5 632 Kbps
Encoded date : UTC 2012-08-16 03:30:05
Writing application : mkvmerge v5.5.0 ('Healer') built on Apr 6 2012 21:43:24
Writing library : libebml v1.2.3 + libmatroska v1.3.0

Video
ID : 1
Format : AVC
Format/Info : Advanced Video Codec
Format profile : High 10@L4.1
Format settings, CABAC : Yes
Format settings, ReFrames : 4 frames
Muxing mode : Header stripping
Codec ID : V_MPEG4/ISO/AVC
Duration : 24mn 32s
Nominal bit rate : 5 000 Kbps
Width : 1 920 pixels
Height : 1 080 pixels
Display aspect ratio : 16:9
Frame rate mode : Constant
Frame rate : 23.976 fps
Color space : YUV
Chroma subsampling : 4:2:0
Bit depth : 10 bits
Scan type : Progressive
Bits/(Pixel*Frame) : 0.101
Writing library : x264 core 118 r2085+616_tMod-10bit 7ba6930
Encoding settings : cabac=1 / ref=4 / deblock=1:-2:-2 / analyse=0x3:0x113 / me=umh / subme=9 / psy=1 / fade_compensate=0.00 / psy_rd=1.00:0.00 / mixed_ref=1 / me_range=32 / chroma_me=1 / trellis=1 / 8x8dct=1 / cqm=0 / deadzone=21,11 / fast_pskip=1 / chroma_qp_offset=-2 / threads=18 / sliced_threads=0 / nr=0 / decimate=1 / interlaced=0 / bluray_compat=0 / constrained_intra=0 / fgo=0 / bframes=3 / b_pyramid=0 / b_adapt=2 / b_bias=0 / direct=3 / weightb=1 / open_gop=0 / weightp=2 / keyint=240 / keyint_min=23 / scenecut=40 / intra_refresh=0 / rc_lookahead=50 / rc=2pass / mbtree=1 / bitrate=5000 / ratetol=1.0 / qcomp=0.60 / qpmin=10 / qpmax=51 / qpstep=4 / cplxblur=20.0 / qblur=0.5 / vbv_maxrate=50000 / vbv_bufsize=50000 / nal_hrd=none / ip_ratio=1.40 / aq=1:1.00
Default : Yes
Forced : No

Audio
ID : 2
Format : FLAC
Format/Info : Free Lossless Audio Codec
Codec ID : A_FLAC
Duration : 24mn 32s
Bit rate mode : Variable
Channel(s) : 2 channels
Sampling rate : 48.0 KHz
Bit depth : 16 bits
Title : FLAC 2.0
Writing library : libFLAC 1.2.1 (UTC 2007-09-17)
Language : Japanese
Default : Yes
Forced : No

Text
ID : 3
Format : UTF-8
Codec ID : S_TEXT/UTF8
Codec ID/Info : UTF-8 Plain Text
Title : SRT Subtitle
Language : English
Default : Yes
Forced : No

Menu
00:00:00.000 : en:Opening
00:01:31.023 : en:A Part
00:11:12.003 : en:Intermission 1
00:11:17.008 : en:Intermission 2
00:11:22.013 : en:B Part
00:22:31.015 : en:Ending
00:24:00.972 : en:Yokoku

VA - Best Of Uplifting Trance 2014 Volume 2 [2014, Trance, Uplifting Trance, MP3]
2014-07-22 20:07
VA - Best Of Uplifting Trance 2014 Volume 2
Формат: MP3, tracks, 320kbps
Год выпуска: 2014
Страна: All World
Жанр: Trance, Uplifting Trance
Продолжительность: 03:39:06
Описание:

Tracklist
01. Tenishia - Ever True - Club Mix [07:25]
02. Nitrous Oxide - Let Your Heart Beat Home - Original Mix [06:14]
03. Allen & Envy - The Long Run - Original Mix [06:40]
04. Dart Rayne - Stole The Sun - Allen & Envy Remix [07:21]
05. Re:Locate - Jetpack - Original Mix [07:55]
06. Kaimo K. - Leap of Faith - Original Mix [07:58]
07. Feel - So Lonely - Kaimo K Remix [08:25]
08. Space RockerZ - Lead You Back - Kaimo K Remix [07:40]
09. Sneijder - Letting Me Go - Original Mix [06:35]
10. Sarah Lynn - At The End of Every Journey - Jorn van Deynhoven Extended Vocal Mix [07:35]
11. Denise Rivera - Perfect Ending - Kaimo K Remix [08:00]
12. Kaimo K. - Never Dared To Start Again - Original Mix [08:45]
13. Feel - Breath of Life - Original Mix [06:53]
14. Ana Criado - Before I Met You - Original Mix [08:15]
15. Beat Service - #Hey - Original Mix [06:11]
16. Alexander Turok - A Good Start - Beat Service Remix [07:36]
17. Clay C - Endless Sleep - Original Mix [07:44]
18. Feel - Illuminate - First Effect Remix [07:36]
19. Richard Durand - Shield Of Faith - Original Mix [07:47]
20. Ost & Meyer - 10 Days - Original Mix [06:43]
21. Oen Bearen - Blast - Original Mix [06:08]
22. Karanda - It's Now - Original Mix [06:21]
23. Susana - Silent For So Long - Original Mix [08:00]
24. Rafael Frost - Higher - Hazem Beltagui Remix [07:39]
25. Invalyd - Never Coming Down - Rafael Frost Remix [06:05]
26. Damian Wasse - Lost Love - Original Mix [07:45]
27. Dart Rayne - Step Towards The Within - Original Mix [06:13]
28. J Joy - Loving You - Audiko Remix [07:12]
29. Purelight - Outrun - Original Mix [07:09]
30. Ellie Lawson - Calling You - Las Salinas Remix [06:59]

Валера Краматорский - Разыскивается [2013, Шансон, MP3]
2014-07-22 20:07
Валера Краматорский - Разыскивается
Формат: MP3, tracks, 320kbps
Год выпуска: 2013
Страна: Россия
Жанр: Шансон
Продолжительность: 00:40:02
Описание:

01. Другу
02. Зелёный Краматорск
03. Краматорск
04. Нет в жизни счастья
05. О себе
06. Под белой луной
07. Раненая птица
08. Свиданка с матерью
09. Старая тетрадь
10. Таиланд
11. Терновый куст

(Survarium) Штормовое предупреждение. Часть 1. Прорыв. (Шалыгин Вячеслав) [2014, Фантастика, аудиокнига, AAC, 128kbps, M4B, Творческая группа "СамИздат"]
2014-07-22 20:05
(Survarium) Штормовое предупреждение. Часть 1. Прорыв.
Формат: аудиокнига, AAC, 128kbps
Автор: Шалыгин Вячеслав
Год выпуска: 2014
Жанр: Фантастика, Постапокалипсис
Издательство: Творческая группа "СамИздат"
Исполнитель: Татьяна Черничкина, Михаил (mike555), Светлана Никифорова, Чайцын Александр (Алекс), TED, German Shou, Алексей Язов, Владимир Князев (nsJASON), Дамир Мударисов (saturn78), Алексей Старкин (Sikth)
Продолжительность: 2:29:54



Описание: Что будет, если человечество потеряет контроль над тем, что оно создало?
Произойдут экологические катастрофы, взрывы АЭС, химических заводов, масштабные загрязнения больших территорий. Цивилизация сойдет с рельс, а природа постепенно займет место человека. Появятся новые виды животных, более приспособленные к выживанию в новых условиях.
Как выжить в этом безумии?
Когда сам мир стал кошмаром для человека.
За стенами бывших населенных пунктов жуткий лес, через который можно пробиться только с помощью бронетехники. В городе со всех сторон лезут обезумевшие животные и птицы, пытаясь достать судорожно забившегося в развалинах выжившего.
Мы так долго травили и уничтожали все, до чего могли дотянуться, а теперь мир безжалостно пожирает нас, бывших хозяев планеты.
Вглубь леса отправляются смельчаки, пытаясь найти причины произошедшего. Может быть, тогда можно будет найти способ справиться с расползшейся по Земле аномалией.
Исследователей поджидают ядовитые растения, мутанты, дикие животные и еще неизвестные опасности аномалий, в которых, подобно Бермудскому треугольнику, исчезают целые отряды.Ты один из нас, выживших на крошечных островках лагерей, среди бушующего океана подступающего Леса.



Благодарности:
Вячеславу Шалыгину - за саму книгу и его человечность
Владимиру Савину (ака dargalon) - за прекрасную музыку
Студии Vostok Games, в лице Олега Яворского

Полный список исполнителей:
вступления - Александр Шаронов
от автора - Владимир Князев
Капитан Чумаков - Макс Зубков
Денис Бондарёв , Аверьянов Ваня - TED
Семенов «Тунгус» - German Shou (ГерманШоу)
Савенко - Михаил Михайлов
Кулдык - Алексей Язов
Донцов - Альберт
Чернов Артём , дима спирин , неизвестный солдат , сиплый бандит - Алексей Старкин
Кравченко – Сергей - Scandal13
Юля Бондорева - Татьяна Черничкина
Котов Егор - Чайцын Александр
Василиса - Светлана Никифорова
Князев Валерий - Дамир Мударисов
Пак ,танкист, Капитан Захаров, Гром - Николай Кобзев


Вшитая обложка: есть
Разбитие на главы: есть
Версия в MP3: http://tfile.me/forum/viewtopic.php?t=666653




Коварные горничные, 2 сезон 1-13 серии из 13 / Devious Maids [BaibaKo] (Роб Бэйли) [2014, драма, комедия, детектив, WEB-DL 720p, P]
2014-07-22 20:01
Коварные горничные / Devious Maids
2 сезон (1-13 серии из 13)

Перевод: Профессиональный (Многоголосый, закадровый) [BaibaKo]
Субтитры: Отсутствуют
Формат: WEB-DL, MKV, H264, AC3
Страна: США | ABC Studios, Cherry|Wind Productions, Televisa USA
Режиссер: Роб Бэйли, Тауния Маккирнан, Джон Скотт
Жанр: драма, комедия, детектив

Всего серий: 13
Продолжительность: 13 х ~00:43:00
Год выпуска: 2014

В ролях: Грант Шоу, Мелинда Пейдж Хэмилтон, Сьюзэн Луччи, Ана Ортиз, Дрю Ван Экер, Дания Рамирез, Эди Ганем, Джуди Рейс, Брианна Браун, Мариана Клавено и др.

Описание: В центре сюжета находятся четыре амбициозные латиноамериканские горничные, работающие в домах богатых и знаменитых жителей Беверли-Хиллз, подруга которых однажды была найдена жестоко убитой, забрав их общую шокирующую тайну с собой в могилу. После этого им приходится хранить секрет, чего бы это не стоило, между тем работая на своих испорченных и красивых хозяев. Этот новый проект от создателя сериала «Отчаянных домохозяек» Марка Черри. Это адаптация мексиканского сериала, но режиссёр уверяет, что сюжет будет закручен не хуже, чем в «Отчаянных...»..

Рейтинг:


Видео: 1280x720 (1.77:1), 23.976 fps, AVC (x264), High@L4.1 ~4096 kbps avg, 0.185 bit/pixel.
Аудио Rus: 48 kHz, AC3 Dolby Digital, 3/2 (L, C, R, l, r) + LFE ch, ~384 kbps.
Аудио Eng: 48 kHz, AC3 Dolby Digital, 3/2 (L, C, R, l, r) + LFE ch, ~384 kbps.

Релиз:


Перевод: Lub_a
Озвучка: Лира Грим, Юлия Котурбаш, Татьяна Оболевич и Артемий Мирон
Монтаж: Павел Дежин

Содержание
  • Эпизод 01 - An Ideal Husband / Идеальный муж
  • Эпизод 02 - The Dark at the Top of the Stairs / Тьма наверху лестницы
  • Эпизод 03 - Dangerous Liaisons / Опасные связи
  • Эпизод 04 - Crimes of the Heart / Преступления сердца
  • Эпизод 05 - The Bad Seed / Дурное семя
  • Эпизод 06 - Private Lives / Частные жизни
  • Эпизод 07 - Betrayal / Предательство
  • Эпизод 08 - Night, Mother / Доброй ночи, мама
  • Эпизод 09 - The Visit / Визит
  • Эпизод 10 - Long Day's Journey Into Night / Долгое путешествие в ночь
  • Эпизод 11 - You Can't Take It With You / Ты не можешь забрать это с собой
  • Эпизод 12 - Proof / Доказательство
  • Эпизод 13 - Look Back in Anger / Оглянись во гневе
MediaInfo
    Формат : Matroska
    Версия формата : Version 4 / Version 2
    Размер файла : 1,44 Гбайт
    Продолжительность : 42 м.
    Режим общего битрейта : Переменный
    Общий поток : 4862 Кбит/сек
    Название фильма : Devious Maids 01 An Ideal Husband (1080p HD)
    Дата кодирования : UTC 2014-04-23 15:43:23
    Программа кодирования : mkvmerge v6.7.0 ('Back to the Ground') 64bit built on Jan 8 2014 15:10:52
    Библиотека кодирования : libebml v1.3.0 + libmatroska v1.4.1

    Видео
    Идентификатор : 1
    Формат : AVC
    Формат/Информация : Advanced Video Codec
    Профиль формата : High@L4.1
    Параметр CABAC формата : Да
    Параметр ReFrames формата : 5 кадров
    Идентификатор кодека : V_MPEG4/ISO/AVC
    Продолжительность : 42 м.
    Вид битрейта : Переменный
    Битрейт : 4096 Кбит/сек
    Максимальный битрейт : 62,5 Мбит/сек
    Ширина : 1280 пикселей
    Высота : 720 пикселей
    Соотношение сторон : 16:9
    Режим частоты кадров : Постоянный
    Частота кадров : 23,976 кадра/сек
    Цветовое пространство : YUV
    Субдискретизация насыщенности : 4:2:0
    Битовая глубина : 8 бит
    Тип развёртки : Прогрессивная
    Бит/(Пиксели*Кадры) : 0.185
    Размер потока : 1,19 Гбайт (82%)
    Библиотека кодирования : x264 core 135 r2345 f0c1c53
    Настройки программы : cabac=1 / ref=5 / deblock=1:-1:-1 / analyse=0x3:0x113 / me=umh / subme=8 / psy=1 / psy_rd=1.00:0.15 / mixed_ref=1 / me_range=16 / chroma_me=1 / trellis=1 / 8x8dct=1 / cqm=0 / deadzone=21,11 / fast_pskip=1 / chroma_qp_offset=-3 / threads=12 / lookahead_threads=2 / sliced_threads=0 / nr=0 / decimate=1 / interlaced=0 / bluray_compat=0 / constrained_intra=0 / bframes=3 / b_pyramid=0 / b_adapt=2 / b_bias=0 / direct=3 / weightb=1 / open_gop=0 / weightp=2 / keyint=240 / keyint_min=24 / scenecut=40 / intra_refresh=0 / rc_lookahead=50 / rc=2pass / mbtree=1 / bitrate=4096 / ratetol=1.0 / qcomp=0.60 / qpmin=0 / qpmax=69 / qpstep=4 / cplxblur=20.0 / qblur=0.5 / vbv_maxrate=62500 / vbv_bufsize=62500 / nal_hrd=vbr / ip_ratio=1.40 / aq=1:1.00
    Default : Да
    Forced : Нет

    Аудио #1
    Идентификатор : 2
    Формат : AC-3
    Формат/Информация : Audio Coding 3
    Расширение режима : CM (complete main)
    Параметр Endianness формата : Big
    Идентификатор кодека : A_AC3
    Продолжительность : 42 м.
    Вид битрейта : Постоянный
    Битрейт : 384 Кбит/сек
    Каналы : 6 каналов
    Расположение каналов : Front: L C R, Side: L R, LFE
    Частота : 48,0 КГц
    Битовая глубина : 16 бит
    Метод сжатия : С потерями
    Размер потока : 117 Мбайт (8%)
    Язык : Russian
    Default : Да
    Forced : Нет

    Аудио #2
    Идентификатор : 3
    Формат : AC-3
    Формат/Информация : Audio Coding 3
    Расширение режима : CM (complete main)
    Параметр Endianness формата : Big
    Идентификатор кодека : A_AC3
    Продолжительность : 42 м.
    Вид битрейта : Постоянный
    Битрейт : 384 Кбит/сек
    Каналы : 6 каналов
    Расположение каналов : Front: L C R, Side: L R, LFE
    Частота : 48,0 КГц
    Битовая глубина : 16 бит
    Метод сжатия : С потерями
    Размер потока : 117 Мбайт (8%)
    Язык : English
    Default : Нет
    Forced : Нет

Анахрон (Беньковский Виктор, Хаецкая Елена) [2014, Фэнтези, аудиокнига, MP3, 192kbps, Сергей Краснов]
2014-07-22 19:58
Анахрон
Формат: аудиокнига, MP3, 192kbps
Автор: Беньковский Виктор, Хаецкая Елена
Год выпуска: 2014
Жанр: Фэнтези
Издательство: Аудиокнига своими руками
Исполнитель: Сергей Краснов
Продолжительность: 17:21:46




Описание: Мелкий предприниматель с незаурядным именем Сигизмунд Морж, в своем гараже обнаруживает некую молодую особу, которую принимет за выжившую из ума наркоманку, желающую похитить его «ласточку», антикварный «Жигуль» первой модели. Собираясь поутру сдать воровку участковому, он приводит ее в свою холостяцкую берлогу. Проведя бессонную ночь, Сигизмунд меняет решение избавиться от «наркоманки». Тут-то все и началось!



Цикл «Анахрон»

Анахрон (2000) // Авторы: Виктор Беньковский, Елена Хаецкая
Анахрон-2 (2007) // Авторы: Елена Хаецкая, Виктор Беньковский
От исполнителя
В процессе создания аудиокниги менялось оборудование и софт поэтому в начале присутствуют артефакты в дальнейшем все сгладил. Для вставки музыки пытался связаться с Муром ,но не дождался ответа пришлось импровизировать.
Приятного прослушивания.


Спасибо Михаилу Евдокимову (StarAlker) за обложку

Всё и сразу (Роман Каримов) [2014, комедия, криминал, WEB-DLRip]
2014-07-22 19:25
Всё и сразу
Формат: WEB-DLRip, AVI, DivX, AC3
Режиссер: Роман Каримов
Жанр: комедия, криминал
Продолжительность: 01:34:53
Год выпуска: 2014
Выпущено: Россия / Инвада фильм

В ролях: Никита Ост, Антон Шурцов, Александр Паль, Юлия Хлынина, Артем Костюнёв, Андрей Муравьёв, Александр Шаляпин, Андрей Галактионов, Игорь Тарасевич, Ольга Возовая

Описание: Тима и Дэн — друзья-неудачники из провинциального городка. Учеба позади, работать не тянет, девушек нет. На пути к мечте (выбиться в люди) и в надежде получить всё и сразу (без особого напряга) парни берутся выполнить задание местного бандюка и отправляются на дело, прихватив с собой автослесаря Жору, такого же полного лузера.

На кону внушительная сумма, главное — не облажаться и чётко инсценировать ограбление своего же, подставного наркокурьера. Но вот засада: роль курьера случайно достаётся честному дембелю Ване, который оказывается не в курсе схем и обещаний. И теперь в водовороте погонь, потасовок и перестрелок всем четверым нужно по-настоящему напрячься, чтобы грамотно разрулить ситуацию. И получить ВСЁ и СРАЗУ.




Видео: 720x400(16:9), 25fps, Xvid MPEG-4 ~1815 kbps avg, 0.25 bit/pixel
Аудио: 48,1kHz, AC3 Dolby Digital, (6 ch), ~384kbps avg

Украина. Беженцы (ТК "RT") [2014, документальный, SATRip-AVC]
2014-07-22 17:26
Украина. Беженцы

Перевод: Не требуется, cубтитры: отсутствуют
Формат: SATRip-AVC, MP4, H.264, AAC
Страна: Россия
Режиссер: ТК "RT"
Жанр: документальный
Продолжительность: 00:26:47
Год выпуска: 2014

Описание: "Украина. Беженцы" - новый документальный фильм российского международного телеканала "RT" о жителях юго-востока Украины, которые вынуждены покинуть свой дом из-за войны.

Видео: 1280x720 (16:9), 25.000 fps, AVC (х264), High@L3.1, 2 422 Kbps avg, ~ 0.105 bit/pixel
Аудио: 44,1 kHz, AAC Dolby Digital, 2/0 (L,R) ch, ~192 kbps

Mediainfo
General
Полное имя : F:\Dowloads\ukrainnbez_[tfile.me].mp4
Формат : MPEG-4
Профиль формата : Base Media / Version 2
Идентификатор кодека : mp42
Размер файла : 495 Мбайт
Продолжительность : 26 м.
Режим общего битрейта : Переменный
Общий поток : 2617 Кбит/сек
Дата кодирования : UTC 2014-07-17 13:20:04
Дата пометки : UTC 2014-07-17 13:20:04
gsst : 0
gstd : 1585666
gssd : B4A7D6E0BHH1405816278250544
gshh : r11---sn-n8v7lnez.googlevideo.com

Видео
Идентификатор : 1
Формат : AVC
Формат/Информация : Advanced Video Codec
Профиль формата : High@L3.1
Параметр CABAC формата : Да
Параметр ReFrames формата : 1 кадр
Идентификатор кодека : avc1
Идентификатор кодека/Информация : Advanced Video Coding
Продолжительность : 26 м.
Битрейт : 2422 Кбит/сек
Максимальный битрейт : 7363 Кбит/сек
Ширина : 1280 пикселей
Высота : 720 пикселей
Соотношение сторон : 16:9
Режим частоты кадров : Постоянный
Частота кадров : 25,000 кадров/сек
Цветовое пространство : YUV
Субдискретизация насыщенности : 4:2:0
Битовая глубина : 8 бит
Тип развёртки : Прогрессивная
Бит/(Пиксели*Кадры) : 0.105
Размер потока : 458 Мбайт (93%)
Дата пометки : UTC 2014-07-17 13:22:27

Аудио
Идентификатор : 2
Формат : AAC
Формат/Информация : Advanced Audio Codec
Профиль формата : LC
Идентификатор кодека : 40
Продолжительность : 26 м.
Вид битрейта : Переменный
Битрейт : 192 Кбит/сек
Максимальный битрейт : 201 Кбит/сек
Каналы : 2 канала
Расположение каналов : Front: L R
Частота : 44,1 КГц
Метод сжатия : С потерями
Размер потока : 36,3 Мбайт (7%)
Заголовок : IsoMedia File Produced by Google, 5-11-2011
Дата кодирования : UTC 2014-07-17 13:21:52
Дата пометки : UTC 2014-07-17 13:22:27