Последние новости

Тайны мира с Анной Чапман - Мясо. Плоть обмана [Эфир от 18.04.2014] (РЕН ТВ) [2013, документальный, SATRip]
2014-04-18 15:10
Тайны мира с Анной Чапман. Мясо. Плоть обмана [Эфир от 18.04.2014]

Перевод: Не требуется, cубтитры: отсутствуют
Формат: SATRip, AVI, XviD, MP3
Страна: Россия
Режиссер: РЕН ТВ
Жанр: документальный
Продолжительность: 00:45:00
Год выпуска: 2014
Ведущая: Анна Чапман

Описание: Программа «Тайны мира с Анной ЧАПМАН» (из проекта РЕАЛЬНОСТЬ) посвящена самым загадочным явлениям современности. Не случайно, что ведущей программы стала самая загадочная женщина нашего времени. Только на РЕН ТВ она воспользуется своими талантами для раскрытия самых запутанных мистификаций.
формат этой программы — экспериментальный. Новый интригующий жанр. Программа снимается на совершенно новом оборудовании, с которым российское телевидение при создании телевизионных программ еще не работало.

В выпуске:
Каннибализм считается омерзительным преступлением, но люди продолжают поедать себе подобных - мы едим мясо: говядину, конину и даже собачатину… При этом у разных народов сложились совершенно разные правила о том, кого можно, а кого нельзя есть. Почему в Индии под запретом именно мясо коровы? Правда ли, что съев сердце тигра, станешь сильным, как тигр, а злоупотребляя курятиной, поглупеешь? Мы - то, что мы едим. Что надо знать о современном мясе, чтобы сохранить здоровье: и душевное, и физическое?


Видео: 720x400 (1.80:1), 25 fps, XviD MPEG-4 ~1495 kbps avg, 0.21 bit/pixel
Аудио: 48 kHz, MPEG Layer 3, 2 ch, ~128.00 kbps avg

Наш сад (Марина Овчинникова) [2014, Обучающее видео, садоводство, SATRip]
2014-04-18 15:02
Наш сад
Перевод: Не требуется, cубтитры: отсутствуют
Формат: SATRip, AVI, XviD, MP3

Описание:
1. Готовим сад к лету, весенняя обрезка.

Пришествие Дьявола / Devil's Due (Мэттью Беттинелли, Тайлер Джиллетт) [2014, ужасы, HDRip] DUB
2014-04-18 14:57
Пришествие Дьявола / Devil's Due

Перевод: Профессиональный (полное дублирование) [Лицензия]

Субтитры: Отсутствуют

Формат: HDRip, AVI, XviD, AC3

Страна: США

Режиссер: Мэттью Беттинелли, Тайлер Джиллетт

Жанр: ужасы

Продолжительность: 01:29:19

Год выпуска: 2014

В ролях: Эллисон Миллер, Зак Гилфорд, Сэм Андерсон, Роджер Пейано, Ванесса Рэй, Билл Мартин Уильямс, Джеральдин Сингер, Джулия Дентон Френсис, Колин Уолкер, Мэдисон Вульф

Описание: После странной ночи во время их медового месяца молодожены сталкиваются с проблемой незапланированной беременности. Постепенно муж начинает замечать необычные изменения в поведении жены, поначалу они списывают это на нервы, но по прошествии нескольких месяцев становится очевидным, что перемены в ее теле и разуме имеют более зловещее происхождение…

________ ________

Видео: 720x384 (2.37:1), 23.976 fps, XviD MPEG-4 ~ 1740 kbps avg, 0.29 bit/pixel
Аудио: 48 kHz, AC3 Dolby Digital, 3/2 (L,C,R,l,r) + LFE ch, ~384 kbps

Наш сад (Марина Овчинникова) [2014, Обучающее видео, садоводство, SATRip]
2014-04-18 14:51
Наш сад
Перевод: Не требуется, cубтитры: отсутствуют
Формат: SATRip, AVI, XviD, MP3
Страна: Россия
Режиссер: Марина Овчинникова
Жанр: Обучающее видео, садоводство
Продолжительность: 00:17:57
Год выпуска: 2014

Описание:
1. Готовим сад к лету, весенняя обрезка.
2. Достаем черенки, готовим их к посадке.
3. Досвечиваем рассаду чтобы была крепкой и не вытягивалась.
4. Выбираем садовые лопаты и слушаем садовые советы.


Видео: 704 x 396 (16:9), 25 fps, XviD MPEG-4, 1645 Кбит/сек, 0.236 bit/pixel
Аудио: 48, 0 КГц, MPEG Layer 3, 1 канал, 128 Кбит/сек

MediaInfo
Формат : AVI
Формат/Информация : Audio Video Interleave
Размер файла : 229 Мбайт
Продолжительность : 17 м.
Общий поток : 1783 Кбит/сек
Библиотека кодирования : VirtualDub build 35390/release

Видео
Идентификатор : 0
Формат : MPEG-4 Visual
Профиль формата : Advanced Simple@L5
Параметр BVOP формата : 2
Параметр QPel формата : Нет
Параметр GMC формата : Без точки перехода
Параметр матрицы формата : Default (H.263)
Режим смешивания : Сжатый битовый поток
Идентификатор кодека : XVID
Идентификатор кодека/Подсказка : XviD
Продолжительность : 17 м.
Битрейт : 1645 Кбит/сек
Ширина : 704 пикселя
Высота : 396 пикселей
Соотношение сторон : 16:9
Частота кадров : 25,000 кадров/сек
Цветовое пространство : YUV
Субдискретизация насыщенности : 4:2:0
Битовая глубина : 8 бит
Тип развёртки : Прогрессивная
Метод сжатия : С потерями
Бит/(Пиксели*Кадры) : 0.236
Размер потока : 211 Мбайт (92%)
Библиотека кодирования : XviD 73

Аудио
Идентификатор : 1
Формат : MPEG Audio
Версия формата : Version 1
Профиль формата : Layer 3
Идентификатор кодека : 55
Идентификатор кодека/Подсказка : MP3
Продолжительность : 17 м.
Вид битрейта : Постоянный
Битрейт : 128 Кбит/сек
Каналы : 1 канал
Частота : 48,0 КГц
Метод сжатия : С потерями
Размер потока : 16,4 Мбайт (7%)
Выравнивание : Разделение по промежуткам
Продолжительность промежутка : 40 мс. (1,00 видеокадр)
Время предзагрузки промежутка : 500 мс.

EverEve - Regret (Limited Edition, Remastered) [2010, Gothic Doom Metal, MP3]
2014-04-18 14:50
EverEve - Regret (Limited Edition, Remastered)

Формат: MP3, tracks, 320kbps
Год выпуска: 2010
Страна: Deutschland
Жанр: Gothic Doom Metal
Продолжительность: 00:46:19
Описание:

Треклист

01. Misery's Dawn (04:25)
02. Fall Into Oblivion (04:58)
03. Kolyma (04:43)
04. Redemption (05:12)
05. House Of The Rising Sun (05:15)
06. The Eclipse Of The Seventh Sun (Instrumental) (03:06)
07. Passion And Demise (05:27)
08. Dies Irae (04:41)
09. Where No Shadows Fall (04:52)
10. House Of The Rising Sun (Limited Club-Edit) (03:35)


Дополнительная информация:

Ремастер третьего альбома 1999 года Gothic Doom Metal команды из Шопфхайма "EverEve", последнего выпущенный на Nuclear Blast. С выпуском следующего диска группа изменила стиль, перейдя с мрачного готик-метала к насыщенной электроникой кибер-готике с элементами альтернативного метала.

Сайт

http://www.metal-archives.com/bands/EverEve/1080


Релиз проверен Norton 360™

Борьба с большевиками (Савинков Борис) [2014, Биографии и Мемуары, аудиокнига, MP3, 96kbps, Терновский Евгений]
2014-04-18 14:49
Борьба с большевиками
Формат: аудиокнига, MP3, 96kbps
Автор: Савинков Борис
Год выпуска: 2014
Жанр: Биографии и Мемуары
Издательство: Нигде не купишь
Исполнитель: Терновский Евгений
Продолжительность: 01:48:07




Описание: Борис Савинков – одна из самых крупных, но, пожалуй, политически да и психологически одна из самых “сложных” фигур эпохи русской революции и гражданской войны. Отчасти, может быть, поэтому ему не повезло в исследовательской литературе: до недавнего времени он более известен как герой беллетристики и фильмов или персонаж политической публицистики, трактующей его как “артиста авантюры”.
Савинков Борис Викторович (1879, Харьков - 1925, Москва) – один из лидеров партии эсеров. Родился в семье либерально настроенного судьи. Старший брат Савинкова погиб в якутской ссылке. После окончания гимназии Савинков поступил в Петербургский университет, но за участие в студенческом движении был исключен. С 1898 входил в социал-демократическую группу. В 1901 был арестован и сослан в Вологду. В 1903 совершил побег. В Женеве вступил в Боевую организацию эсеров и успешно участвовал в громких террористических актах, среди которых убийство В.К. Плеве, великого князя Сергея Александровича. Являлся заместителем Е.Ф. Азефа, а после его разоблачения возглавил Боевую организацию. Арестованный в 1906, был приговорен военным судом к повешению, но бежал в Румынию. Талантливый литератор, Савинков (литературный псевдоним В. Ропшин) в эмиграции стал автором «Воспоминаний террориста», «Коня бледного», романа «То, чего не было». В 1911 перебрался во Францию. С начала первой мировой войны был военным корреспондентом, служа добровольцем во французской армии. После Февральской революции 1917 вернулся в Россию и был сторонником ведения войны до победного конца, служил комиссаром Временного правительства на Юго-Западном фронте, товарищем военного министра, выступая за суровую борьбу «с разлагающими армию элементами вроде так называемых большевистских течений и большевиков». Безуспешно способствовал созданию общей платформы между Л. Г. Корниловым и А.Ф. Керенским. В сентябре 1917 не счел нужным давать объяснения своей деятельности ЦК, по словам Савинков, не имеющему ныне «ни морального, ни политического авторитета», и был исключен из партии эсеров. Во время Октябрьской революции неудачно пытался освободить Зимний дворец. Являлся одним из создателей Добровольческой армии на Дону. В 1918 в Москве организовал с целью свержения Советской власти «Союз защиты родины и свободы», который был разгромлен. Потерпели поражение подготовленные Савинковым мятежи в Ярославле, Рыбинске, Муроме. Н.Д. Авксентьев направил Савинкова с военной миссией во Францию. Там Савинков продолжил активную борьбу с большевистским режимом. В 1920 в Польше готовил вооруженные отряды для рейдов на советскую территорию. Издавал газету «За свободу», но все более разочаровывался в «белом деле», что отразилось в его повести «Конь вороной». В 1924 был арестован после нелегального перехода советской границы. На суде и печатно заявил о своем признании Советской власти. Был приговорен к расстрелу, но по ходатайству суда Президиум ЦИК СССР смягчил наказание до 10 лет заключения. Покончил с собой, выбросившись из окна в здании ВЧК. По версии Солженицына был убит властями.
Воспоминания Савинкова печатаются в сокращении по его книге "Борьба с большевиками", Варшава, 1920 год


Содержание
В Петрограде
В Царском Селе
Пулковский бой
Роль Керенского
Роль генерала Черемисова
В пути на Дон
«Донской гражданский совет»
Союз защиты Родины и свободы
Под покровом конспирации
Снова в пути
«Комитет Учредительного собрания»
Падение Казани




Доп. информация:
Прочитано по изданию: М., Книга, 1990 г.
Очищено: sky4all
Обработано: knigofil
Обложка: Вася с Марса

Новый Comedy Club (эфир от 18.04.2014) (ТНТ) [2014, ТВ-Шоу, юмор, WEB-DLRip]
2014-04-18 14:43
Новый Comedy Club (эфир от 18.04.2014)
Перевод: Не требуется, cубтитры: отсутствуют
Формат: WEB-DLRip, AVI, XviD, MP3
Страна: Россия
Режиссер: ТНТ
Жанр: ТВ-Шоу, юмор
Продолжительность: 00:45:13
Год выпуска: 2014

В ролях: Гарик Мартиросян, Павел Воля, Тимур Батрутдинов, Александр Ревва, Гавриил Гордеев, Олег Верещагин, Дмитрий Сорокин, Зураб Матуa, Андрей Аверин, Алексей Лихницкий, Роман Юнусов, Антон Лирник, Андрей Молочный, Александр Незлобин, Дмитрий Хрусталёв, Виктор Васильев (III), Сергей Бессмертный, Игорь Меерсон, Семён Слепаков

Описание: Как всегда, Comedy Club собрал все самое смешное, чтобы оставаться самым крутым юмористическим шоу на телевидении. Только самые лучшие номера от резидентов "Сomedy Сlub". Выдержанный юмор, проверенный временем и многомиллионной телевизионной аудиторией. Павел Воля бросает пить, а Тимур Батрутдинов оказывает клиентам интимные услуги. Кроме того в выпуске - лучшие песни от участников грушинского бард-н-блюз фестиваля в Америке, экспериментальный юмор от Гарика Мартиросяна и многое другое. Вы помните, что теперь Новый Comedy Club – больше чем просто шоу на сцене? Камеры готовы? Музыканты готовы? Зрители готовы? Поехали!

Видео: 720x400 (1.80:1), 25 fps, XviD build 64 ~1643 kbps avg, 0.23 bit/pixel
Аудио: 44.100 kHz, MPEG Layer 3, 2 ch, ~128.00 kbps avg

Вокруг Пушкина (Ободовская Ирина, Дементьев Михаил) [2013, Биографии, аудиокнига, MP3, 96kbps, Дина Григорьева]
2014-04-18 14:38
Вокруг Пушкина
Формат: аудиокнига, MP3, 96kbps
Автор: Ободовская Ирина, Дементьев Михаил
Год выпуска: 2013
Жанр: Биографии
Издательство: Нигде не купишь
Исполнитель: Дина Григорьева
Продолжительность: 14:27:20




Описание: В 1963 году авторы начали работу над архивом семьи Гончаровых, родственников Н.Н.Пушкиной. Среди фамильной переписки Гончаровых обнаружено неизвестное письмо А.С.Пушкина, письма Натальи Николаевны и ее сестер Екатерины и Александры Гончаровых. Все письма адресованы Д.Н.Гончарову.
Новонайденные письма дают материал для осмысления образа жены поэта, для характеристики обстановки в доме Пушкиных с 1832 по 1837 г., наконец, многие из этих писем уточняют и дополняют данные к биографии А.С.Пушкина.





Доп. информация:
Прочитано по изданию: М. Советская Россия, 1975
Очищено: knigofil
Обработано: knigofil
Обложка: Вася с Марса

Armageddon Riders (RePack от R.G. Origami) [2009, Racing]
2014-04-18 14:27
Armageddon Riders (RePack от R.G. Origami)

Год выпуска: 2009
Жанр: Racing
Разработчик: Targem Games
Издательство: HeadUp Games
Издательство в России: GFI
Сайт разработчика: http://www.targem.ru/
Язык интерфейса:
Язык озвучки: Отсутствует
Таблетка: Вшита
Платформа: PC
Тип издания: Lossless RePack

Системные требования: Операционная система: Windows XP / Windows Vista / Windows 7 / Windows 8
Процессор: Intel Core 2 Duo или аналогичный AMD Athlon 64 x2 с тактовой частотой 2 ГГц
Оперативная память: 1Гб
Видеокарта: класса NVIDIA GeForce 8800GT или ATI® Radeon X1950 XT и выше, с 256 Мб памяти, совместимая с DirectX® 9
Звуковая карта: Звуковое устройство, совместимое с DirectX® 9.0с
Свободное место на жестком диске: 1Gb


Описание: Ты за рулем машины смерти. Твои враги – зомби. Их очень много в этом мёртвом городе, ставшим опасным после загадочной катастрофы на Большом Адронном Коллайдере. Кстати, он расположен совсем недалеко от города; ты можешь запросто погонять внутри БАКа как по обычным гоночным трассам. Но твоя главная задача – стереть с лица земли этих проклятых зомби и докопаться до первопричины катастрофы…
Armageddon Riders – кровавый автомобильный экшен для любителей быстрой безнравственной езды без правил и без тормозов!

Особенности игры

Неповторимая бойня на дороге;
Мрачная атмосфера заброшенного города;
Брутальные автомобили с возможностью индивидуального убойного тюнинга (кенгурятники, ножи-мясорубки и турбоускорители);
Более восьми режимов испытаний, среди которых: уничтожение зомби, бои на арене, сбор артефактов, смертельные гонки и многие другие;
Возможность прохождения игры по сюжетной линии или участие в дополнительных миссиях.

[/shots]
Особенности RePack'a

Исходник: лицензия от GFI
Ничего не вырезано / не перекодировано
Версия игры - 1.0.0.1
Время установки ~2 минуты
Релиз группы - R.G. Origa
mi
[/shots]

Наполеон (2 серии из 2) / Napoleon (Саша Гитри) [1955, драма, DVDRip] MVO
2014-04-18 14:26
Наполеон (2 серии из 2) / Napoleon

Перевод: Профессиональный (многоголосый закадровый), субтитры: отсутствуют
Формат: DVDRip, AVI, XviD, AC3
Страна: Франция, Италия
Режиссер: Саша Гитри
Жанр: драма
Продолжительность: 01:34:37 + 01:30:22
Год выпуска: 1955
В ролях: Даниэль Желен, Раймон Пеллегрен, Жан Марэ, Орсон Уэллс, Жан Габен, Ив Монтан, Жан-Пьер Омон, Пьер Брассёр, Жанна Мария Канале, Паулин Картон, Даниэль Даррьё, Мадлен Лебо, Саша Гитри, Луис Мариано, Арман Местраль, Мишель Морган, Паташу, Роджер Пижо, Мишелин Пресле, Серж Реджани, Дани Робен, Ноэль Роквер, Мария Шелл, Эрих Штрогейм, Морис Тейнак, Анри Видаль
Описание:
«Он родился на острове, мечтал всю жизнь покорить остров, и умер против своей воли на острове» - так начинает свой рассказ князь Талейран, из уст которого Вы узнаете достоверную историю жизни великого императора и полководца Франции Наполеона Бонапарта, историю от самого дня рождения до дня смерти в изгнании на острове Святой Елены. Это наиболее полная история жизни одной из самых неординарных личностей нашей эпохи.



Видео: 720x552 (1.30:1), 25 fps, XviD build 50 ~1899 kbps avg, 0.19 bit/pixel
Аудио #1: Русский: 48 kHz, AC3 Dolby Digital, 2/0 (L,R) ch, ~192 kbps [профессиональный (многоголосый, закадровый)]
Аудио #2: Французский: 48 kHz, AC3 Dolby Digital, 2/0 (L,R) ch, ~192 kbps [оригинал]

Аудио/видеопараметры в обеих сериях одинаковые

Показать скриншоты
_____1 серия_____










_____2 серия_____










Life Goes On [2014, Action, Adventure, Casual, Indie]
2014-04-18 14:18
Life Goes On [2014, Action, Adventure, Casual, Indie]








Год выпуска: 2014
Жанр: Action, Adventure, Casual, Indie
Разработчик: Infinite Monkeys Entertainment Ltd.
Издательство: Infinite Monkeys Entertainment Ltd.
Сайт разработчика: http://www.lifegoesongame.com/
Язык интерфейса: Английский
Язык озвучки: Английский
Платформа: PC
Таблетка: Присутствует (ALiAS)




Системные требования:
Операционная система: Windows XP / Vista / 7 / 8
Процессор: Intel Core 2 Duo 2.4 GHz
Оперативная память: 2 Гб
Звуковое устройство: совместимое с DirectX 9.0с
Видеокарта: Shader Model 3.0 support with 512MB Integrated Memory
Место на жестком диске: 625 MB




Описание:
Life Goes On – это платформер-головоломка от независимых разработчиков Infinite Monkeys. Игра напоминает знаменитых Lemmings, только теперь вместо леммингов вы сможете использовать рыцарей-камикадзе. Задача каждого игрока состоит в том, чтобы добраться до сокровищ, которые находятся в конце уровней. На протяжении всего пути вам будут встречаться разнообразные опасные ловушки и препятствия. Однако вы неплохо вооружены – у вас в наличии будет определенное количество преданных, мужественных рыцарей. Игрок может поочередно отправлять их на верную смерть, что поможет следующим героям пройти дальше. Один из таких везунчиков и должен добраться до конца уровня, где он найдете несметные богатства и славу!




Информация по установке:
1. Установить
2. Скопировать содержимое папки Crack в папку с заменой игрой.
3. Играть





Самое полное собрание стихотворений и поэм (Пастернак Борис) [2013, Поэзия, аудиокнига, MP3, 96kbps, Вячеслав Герасимов]
2014-04-18 14:03
Самое полное собрание стихотворений и поэм
Формат: аудиокнига, MP3, 96kbps
Автор: Пастернак Борис
Год выпуска: 2013
Жанр: Поэзия
Издательство: Нигде не купишь
Исполнитель: Вячеслав Герасимов
Продолжительность: 11:05:39 + 07:24:00




Описание: В мегараздачу вошли лучшие стихотворения и поэмы "Девятьсот пятый год", "Лейтенант Шмидт", "Спекторский".
Представлены две начитки записанные в разное время в 1982 и 1998 годах. Сборники отличаются по составу, по манере исполнения и качеству звучания ,хотя, чтец тот-же.
В качества Бонуса вошли фонограммы Виктора Зозулина, Михаила Козакова и Сергея Юрского.





Доп. информация:
Прочитано по изданию: М., Советский писатель, 1965 г; М., Художественная литература, 1988 г.
Оцифровано: knigofil
Очищено: sky4all
Обложка: Вася с Марса
Постихотворная нарезка: bookmarker

Физрук (1-8 серии из 20) (Фёдор Стуков, Сергей Сенцов) [2014, комедия, WEB-DL 720p]
2014-04-18 13:57
Физрук
Перевод: Не требуется, cубтитры: отсутствуют
Формат: WEB-DL 720p, MKV, H.264, AC3
Страна: Россия
Режиссер: Фёдор Стуков, Сергей Сенцов
Жанр: комедия
Всего серий: 20
Продолжительность: 8 x ~ 00:25:00
Год выпуска: 2014

В ролях: Дмитрий Нагиев, Евгений Кулаков, Юрий Устюгов, Егор Пежемский, Валентин Юнин, Андрей Крыжний, Анастасия Панина, Александр Гордон, Владимир Сычев, Владимир Жеребцов

Описание: Это история о столкновении двух времен: «лихих» 90-х и «стабильных» десятых. Главный герой Фома всю жизнь был «правой рукой» влиятельного человека с полукриминальным прошлым. Когда «хозяин» выгнал его на пенсию, Фома решил любым способом вернуться обратно. Сначала казалось, что все будет просто: подобраться к сыну бывшего босса, прогнуться, напомнить о себе и вернуться в дело. Но план Фомы рушится в первый же день. В школе ему приходится задержаться надолго. Попав в абсолютно незнакомый мир детей и учителей, который кардинально отличается от привычного ему круга, Фома не только меняет свою жизнь, но и меняется сам.



Видео: 1280x720 (1.77:1), 25 fps, AVC (х264), High@L4.0, ~3159 kbps avg, 0.137 bit/pixel
Аудио: 44.1 kHz, AC3 Dolby Digital, 2/0 (L,R) ch, 192.00 kbps

Обновление с понедельника по четверг, с 21-00 по 24-00 по МСК.
Последнее обновление 18.04.2014 - добавлена 8 серия.


MI
General
Уникальный идентификатор : 209891908434851365566562477527970361941 (0x9DE7B60E2F08594A978C3A8FE5083255)
Полное имя : D:\кино\Сериалы 2\Elementary_s02_NewStudio\Fizruk.2014.WEB-DL.720p\Fizruk.(01.seriya).2014.WEB-DL.720p.Alexey724.mkv
Формат : Matroska
Версия формата : Version 4 / Version 2
Размер файла : 631 MiB
Продолжительность : 25mn 47s
Общий поток : 3 419 Kbps
Дата кодирования : UTC 2014-04-07 15:24:22
Программа кодирования : mkvmerge v6.1.0 ('Old Devil') built on Apr 20 2013 10:07:04
Библиотека кодирования : libebml v1.3.0 + libmatroska v1.4.0

Video
Идентификатор : 1
Формат : AVC
Формат/Информация : Advanced Video Codec
Профиль формата : High@L4.0
Параметр CABAC формата : Yes
Параметр ReFrames формата : 8 frames
Идентификатор кодека : V_MPEG4/ISO/AVC
Продолжительность : 25mn 47s
Битрейт : 3 159 Kbps
Ширина : 1 280 pixels
Высота : 720 pixels
Соотношение сторон : 16:9
Режим частоты кадров : Constant
Частота кадров : 25.000 fps
Цветовое пространство : YUV
Субдискретизация насыщенности : 4:2:0
Битовая глубина : 8 bits
Тип развёртки : Progressive
Бит/(Пиксели*Кадры) : 0.137
Размер потока : 583 MiB (92%)
Библиотека кодирования : x264 core 125
Настройки программы : cabac=1 / ref=8 / deblock=1:-1:-1 / analyse=0x3:0x133 / me=umh / subme=9 / psy=1 / psy_rd=1.00:0.15 / mixed_ref=1 / me_range=16 / chroma_me=1 / trellis=2 / 8x8dct=1 / cqm=0 / deadzone=21,11 / fast_pskip=1 / chroma_qp_offset=-3 / threads=18 / lookahead_threads=3 / sliced_threads=0 / nr=0 / decimate=1 / interlaced=0 / bluray_compat=0 / constrained_intra=0 / bframes=3 / b_pyramid=2 / b_adapt=2 / b_bias=0 / direct=3 / weightb=1 / open_gop=0 / weightp=2 / keyint=100 / keyint_min=10 / scenecut=40 / intra_refresh=0 / rc_lookahead=60 / rc=crf / mbtree=1 / crf=17.0 / qcomp=0.60 / qpmin=0 / qpmax=69 / qpstep=4 / vbv_maxrate=3600 / vbv_bufsize=3600 / crf_max=0.0 / nal_hrd=none / ip_ratio=1.40 / aq=1:1.00
Default : Yes
Forced : No

Audio
Идентификатор : 2
Формат : AC-3
Формат/Информация : Audio Coding 3
Расширение режима : CM (complete main)
Параметр Endianness формата : Big
Идентификатор кодека : A_AC3
Продолжительность : 25mn 47s
Вид битрейта : Constant
Битрейт : 192 Kbps
Каналы : 2 channels
Расположение каналов : Front: L R
Частота : 44.1 KHz
Битовая глубина : 16 bits
Метод сжатия : Lossy
Задержка видео : -80ms
Размер потока : 35.4 MiB (6%)
Default : Yes
Forced : No

Внимание! Раздача ведётся путём добавления новых серий

Внимание! Раздача ведётся путём добавления новых серий; при каждом добавлении создётся новый торрент. Чтобы начать докачку новой серии, пользователям необходимо сделать следующее:
(1) остановить скачивание,
(2) удалить старый торрент у себя из клиента (старые серии удалять не надо),
(3) скачать новый торрент и запустить его у себя в клиенте вместо старого, при этом указать клиенту путь в старую папку куда и должно происходить скачивание новых серий.

Ваш клиент при этом должен произвести хеширование (проверку) старой папки (если не производит сам - помогите ему сделать это), и будет докачивать только те серии которых у вас ещё нет. Старые серии при этом не удаляются, а продолжают раздаваться!

Eсли вы уже удалили старые серии, то предотвратить повторную закачку старых серий можно, отжав галочку в соответсвующих местах при запуске нового торрента. По возможности, желательно не удалять старые серии как можно дольше чтобы релизёр не столько продолжал раздавать старые серии, а смог сконцентрироваться на новых.

Foosball - Street Edition [2014, Arcade/Sport]
2014-04-18 13:56
Foosball - Street Edition
Год выпуска: 2014
Жанр: Arcade/Sport
Разработчик: Yuisy , Exkee
Издательство: Yuisy
Сайт разработчика: Yuisy
Язык интерфейса: Русский, английский
Платформа: Windows XP, 7, 8
Системные требования: ⇛ Процессор: 1.5 Ghz (Intel Celeron / AMD Athlon 64 x2) / 2.4 Ghz (Intel Core i5 / AMD Phenom II)
⇛ Оперативная память: 2 ГБ / 4 ГБ
⇛ Видеокарта: Intel HD Graphics / GeForce 8000+ / Radeon HD 5000+
⇛ Звуковая карта: Совместимая с DirectX 9.0c
⇛ Свободное место на жестком диске: 3 ГБ
Описание: Foosball - Street Edition - это спортивная аркада, предлагающая вам взять под свой контроль 9 команд по настольному футболу, каждая из которых обладает уникальными навыками и способностями. Разработчики на пытались скопировать известные футбольные симуляторы или другие игры. Foosball - Street Edition предлагает вам сильных соперников и простой геймплей, ориентированный на действия. Наслаждайтесь игрой в футбол с удивительными персонажами в сумасшедших местах!

ROH: CM Punk: The Second City Saint [2012, Рестлинг, DVDRip]
2014-04-18 13:50
ROH CM Punk: The Second City Saint
Перевод: Английский, cубтитры: отсутствуют

Формат: DVDRip, MP4, H.264, AC3

Страна: США

Участники: CM Punk & ROH Superstars

Вид спорта: Рестлинг

Продолжительность: 03:09:59+03:01:47

Дата эфира: 2012

Язык комментариев: Английский

Описание: From the night in 2002 when he made his debut at "Unscripted", the ROH faithful knew there was something special about CM Punk. That night it was just his way with words that won over the Philadelphia crowd but in the coming months, it became evident to the fans there and around the country that Punk could back it up when the bell rang as well. Whether it was slugging it out in the squared circle with his long-time friend Colt Cabana or going toe-to-toe with a hard hitter like BJ Whitmer, Punk was as versatile a wrestler as any who had set foot in the ROH ring, and it was only a matter of time before success came his way.

Through months of bloody battles against Raven that cemented his status as a true warrior in ROH or technical showcases against AJ Styles, CM Punk showed Ring of Honor fans across the globe the skills that would take him to the top of the wrestling world. This 2-Disc, 17 match compilation highlights the beginnings of a career that would cement CM Punk as a true legend in the ROH history books. From Dog Collars to Steel Cages & Pure Wrestling to Tag Team Specialist; welcome to the early years of The Second City Saint...


Видео: MPEG4 Video (H264) 720x480 29.97fps 1933kbps

Аудио: Dolby AC3 48000Hz stereo 224kbps

Содержание
Disc 1

1. CM Punk makes his ROH debut...Unscripted 9/21/02

2. CM Punk vs. Colt Cabana...Night of the Butcher 12/7/02

3. CM Punk vs. Colt Cabana (Winner Receives An ROH Contract)...Final Battle 2002 12/28/02

4. CM Punk vs. CW Anderson...One Year Anniversary Show 2/8/03

5. CM Punk-Raven confrontation...Expect The Unexpected 3/15/03

6. CM Punk vs. Raven (Raven's Rules)...Expect The Unexpected 3/15/03

7. CM Punk & Ace Steel vs. Raven & Colt Cabana...Night of the Champions 3/22/03

8. CM Punk vs. BJ Whitmer...Epic Encounter 4/12/03

9. CM Punk & Colt Cabana vs. Raven & BJ Whitmer (Anything Goes)...Night of the Grudges 6/14/03

10. Closing minutes of Punk & Cabana vs. Raven & Daniels from Wrestle Rave '03 6/28/03

10. CM Punk vs. Raven (Dog Collar Match)...Death Before Dishonor 7/19/03

11. CM Punk vs. Terry Funk...Glory By Honor 2 9/20/03

Disc 2

12. CM Punk vs. Raven (Steel Cage Match)...The Conclusion 11/28/03

13. CM Punk & Colt Cabana vs. Tomoaki Honma & Kazushi Miyamoto...Final Battle 2003 12/27/03

14. The Second City Saints (CM Punk, Ace Steel, & Colt Cabana) and The Prophecy (Christopher Daniels, Dan Maff & BJ Whitmer)...Battle Lines Are Drawn 1/10/04

15. CM Punk vs. AJ Styles (ROH Pure Title Tournament Finals)...Second Anniversary Show 2/14/04

16. CM Punk vs. AJ Styles (ROH Pure Title w/ special guest referee Ricky Steamboat)...At Our Best 3/13/04

17. CM Punk & Colt Cabana vs. Jay & Mark Briscoe (ROH Tag Team Title Match)...ROH Reborn Stage 2 4/24/04

18. Clips of closing minute of Briscoes regaining belts from Maff & Whitmer at Round Robin Challenge III

19. CM Punk & Colt Cabana vs. Jay & Mark Briscoe...Round Robin Challenge III 5/15/04

20. CM Punk & Colt Cabana vs. BJ Whitmer & Dan Maff (ROH Tag Team Title Match)...Generation Next 5/22/04

Vremena Goda (Борисова Анна (aka Акунин Борис)) [2014, Современная проза, аудиокнига, MP3, 64kbps, Алена Бабенко]
2014-04-18 13:49
Vremena Goda
Формат: аудиокнига, MP3, 64kbps
Автор: Борисова Анна (aka Акунин Борис)
Год выпуска: 2014
Жанр: Современная проза
Издательство: Аудиокнига
Исполнитель: Алена Бабенко
Продолжительность: 14:32:21




Описание: Роман «VREMENA GODA» написан эклектично в духе утонченного английского постмодерна Джеймса Джойса и изящно концептуального стиля романиста Джона Фаулза. Можно даже сказать, что он вобрал в себя все те богатства жанра, которые мастерски культивировали психолог и богоискатель Достоевский и блестящий романист-мистификатор Франц Кафка. А главное – книга написана с душой и от души, поэтому читать ее безумно приятно и эмоционально полезно.




Релиз : beckham48

Браво - 30 лет. Концерт в Stadium Live [2013, Rock'n'Roll, Blu-ray]
2014-04-18 13:45
Браво - 30 . Концерт в Stadium Live

Формат: Blu-ray, BDMV, AVC, LPCM, AC-3
Песня: 30 . Концерт в Stadium Live
Жанр: Rock'n'Roll
Продолжительность: 02:00:40
Год выпуска: 2013

Видео: 1920 x 1080i (1.778) at 25 fps, MPEG-4 AVC Video, 21000 kbps

Аудио: Dolby Digital Audio / 5.1 / 48 kHz / 640 kbps / DN -4dB
Аудио: Dolby TrueHD Audio / 5.1 / 48 kHz / 4601 kbps / 24-bit (AC3 Embedded: 5.1 / 48 kHz / 320 kbps)

Треклист:

01. Добрый вечер, Москва
02. Мода
03. Мне грустно и легко
04. Если бы на марсе
05. Вот и я
06. Нет предела
07. Ветер знает
08. Плохой, хороший, злой
09. 36.6
10. Замок из песка
11. Любите девушки
12. Держись, пижон
13. Вася
14. Король оранжевое
15. Как жаль
16. Стильный оранжевый галстук
17. Московский бит
18. Бег
13. Любовь не горит
20. Дорога в облака
21. На лунный свет
22. Это за окном рассвет
23. Ленинградский Рок-Н-Ролл
24. От Таганки до Кузьминок
25. Whole Lotta Shakin' Coin' On
26. Этот город
27. Старый отель

Описание
Однажды 1978 года на нашем выпускном вечере в московской школе № 623 я попросил приглашенный для этого торжественного события ВИА (вокально-инструментальный ансамбль) дать нам сыграть. Ужасно волнуясь, я и двое моих друзей вышли и исполнили целых три песни. Если честно, больше нам не дали. Сейчас я помню, что одной из них была "Солнечный остров" группы "Машина Времени". После выступления я спросил у музыкантов из ВИА, как им понравилось. "Ребята, а не крутовато вам браться за такие сложные композиции?" - прозвучало в ответ.

Прошло больше 30 . Сейчас с уверенностью могу сказать - не крутовато! За это время я научился сам писать песни и мы вместе с группой научились их исполнять на концертах и записывать на пластинках. Не хочу и не люблю подводить какие-либо итоги, но этот концерт в клубе Stadium Live, самом большом рок-н-ролльном клубе нашего города, - определенный рубеж для всех нас. Мы специально выбрали эту площадку со стоячим танцевальным партером, хотя и Кремлевский дворец, и "Крокус Сити Холл" тоже бы подошли такому событию. Просто в 1980-е, когда для "Браво" всё начиналось, мы играли именно в рок-н-ролльных клубах. Так что традиции решено было не изменять. Иногда мне задают вопрос: "Какое ваше самое главное достижение на сегодняшний день?". И я с уверенностью на него отвечаю: "Наши в очередной раз помолодевшие поклонники". Средний возраст которых сегодня 25 . Некоторые вещи остаются неизменными. Заслуженный стиляга московского района Кузьминки Евгений Хавтан
BDInfo
Disc Title: Браво
Disc Size: 42 940 713 600 bytes
Protection: AACS
BD-Java: Yes
Playlist: 00003.MPLS
Size: 25 915 398 144 bytes
Length: 2:00:40.120
Total Bitrate: 28,64 Mbps
Video: MPEG-4 AVC Video / 21000 kbps / 1080i / 25 fps / 16:9 / High Profile 4.1
Audio: Russian / Dolby Digital Audio / 5.1 / 48 kHz / 640 kbps / DN -4dB
Audio: Russian / Dolby TrueHD Audio / 5.1 / 48 kHz / 4601 kbps / 24-bit (AC3 Embedded: 5.1 / 48 kHz / 320 kbps)
Subtitle: Russian / 0,034 kbps

Женщины (Велембовская Ирина) [2013, проза, повесть, аудиокнига, MP3, 96kbps, Абалкина Мария]
2014-04-18 13:36
Женщины
Формат: аудиокнига, MP3, 96kbps
Автор: Велембовская Ирина
Год выпуска: 2013
Жанр: проза, повесть
Издательство: Нигде не купишь
Исполнитель: Абалкина Мария
Продолжительность: 02:01:11




Описание: Умеете ли вы любить? Кто из женщин может ответить на этот вопрос утвердительно? Да все. А мешают, мол, всегда непонимание сильного пола и обстоятельства жизни. Классик женской психологической прозы Ирина Велембовская думала иначе. В ее прозе – это всегда труд сердца, желание понять другого, будь то давний привычный спутник жизни или неожиданная встреча, из которой – кто знает – может вылепиться судьба…




Доп. информация:
Прочитано по изданию: М. АСТ Астрель, Владимир, ВКТ, 2010, Повесть из книги "Дела семейные"
Очищено: knigofil
Обработано: knigofil
Обложка: Вася с Марса

Dead Space 3 [2013, Action / Shooter / 3D / 3rd Person]
2014-04-18 13:35
Dead Space 3
Год выпуска: 2013
Жанр: Action / Shooter / 3D / 3rd Person
Разработчик: Visceral Games
Издательство: Electronic Arts
Сайт разработчика: www.ea.com
Язык интерфейса: RUS/ENG/MULTi6
Платформа: PC
Тип издания: Лицензия
Таблетка: Присутствует
Системные требования:
✔ Операционная система: XP (SP3)/Vista/Windows 7
✔ Процессор: 2,8 ГГц
✔ Оперативная память: 1 Гб для ХР; 2 Гб для Vista / Windows 7
✔ Видеокарта: DirectX® 9.0с.; с 256 Мб; NVIDIA GeForce 6800 / ATI X1600 Pro или лучше
✔ Звуковая карта: совместимая с DirectX® 9.0с.
✔ Свободное место на жестком диске: 10,9 Гб
Описание: Сюжет игры Dead Space 3 начинается с того, что Айзек Кларк и беспощадный солдат Джон Карвер, отправляются на поиски источника появления некроморфов. Оказавшись на заснеженной планете, главному герою предстоит преодолеть суровые препятствия, которые будут преследовать его на протяжении всей игры. Для того чтобы выжить, ему необходимо будет задействовать все свои силы и навыки, ведь только таким образом он сможет спасти Вселенную от апокалипсиса.
Установка игры:
1. Монтировать образ.
2. Установить файл с игрой.
3. Скопировать таблетку с заменой.
4. Играть.

PLMMA 31 [12.04.2014, MMA, WEBRip]
2014-04-18 13:27
PLMMA 31
Перевод: Польский, cубтитры: отсутствуют

Формат: WEBRip, MKV, H.264, AAC

Страна: Польша

Участники: Бойцы MMA

Вид спорта: MMA

Продолжительность: 01:30:14

Дата эфира: 12.04.2014

Язык комментариев: Польский

Описание: Двенадцатого апреля в Кошалине (Польша) состоялсяся турнир по боям без правил PLMMA 31, где свои бои провели 2 чеченских бойца Расул Яхъяев и Ламберт Ахъядов.

Видео: MPEG4 Video (H264) 640x368 25fps 839Kbps

Аудио: AAC 48000Hz stereo 128kbps

Кард
120 kg: Jozef Warchol vs. Lukasz Borowski

84 kg: Antoni Chmielewski vs. Arkadiusz Zaba

93 kg: Michal Gutowski vs. Martin Zawada

61 kg: Mateusz Rajewski vs. Dawid Pasternak

120 kg: Miroslaw Adamow vs. Adam Okninski

93 kg: Marcin Wojcik vs. Wojciech Balejko

84 kg: Lukasz Witos vs. Pawel Hadas

70 kg: Lambert Akhiadov vs. Michal Krajewski

66 kg: Robert Rajewski vs. Dawid Gabara