Новости: Результаты онлайн опроса: "ЕГЭ-гэ-гэ-й, славяне!"

Последние новости

VA - Italo and Space Vol.12 [2015, Dance, Italo Disco, Spacesynth, MP3]
2015-07-27 09:53
error getting text

VA - Clubs Hottest Select Qualification (3CD) [2015, House, Bigroom, Club, Happy Sound, Dutch, Progressive House, MP3]
2015-07-27 09:47
error getting text

"Вести недели" / Московский выпуск [Эфир от 26.07.2015] (ТК "Россия HD") [2015, информационно-аналитическая программа, HDTV]
2015-07-27 09:42
error getting text

Советский детектив. Сборник. (П. Нилин, Ю. Герман, А. и Г. Вайнеры, Арк. Адамов, Л. Словин.) [2010, Милицейский детектив, аудиокнига, MP3, 96kbps, Николай Козий]
2015-07-27 09:34
error getting text

Апокалипсис [10 серий из 10] (Константин Владимиров) [2011-2012, документальный, SATRip]
2015-07-27 09:30
error getting text

Сладости 1 [2014, Кулинария, видеоуроки, DVDRip]
2015-07-27 08:25
Сладости 1


Перевод: Не требуется, Субтитры: отсутствуют
Формат: DVDRip, AVI, XviD, MP3
Страна: Россия

Жанр: Кулинарые видеоуроки
Продолжительность: 01:47:54
Год выпуска: 2014

Описание: Это первый выпуск видеоуроков, посвящённых приготовлению различных сладостей в домашних условиях.


Видео: 640x368 (1.65:1), 25 fps, XviD MPEG-4 ~ 1000 kbps avg, ~ 0.20 bit/pixel
Аудио: 44.1 kHz, MPEG Layer 3, 2 ch, ~128.00 kbps avg

Жертва: Роман о генерале Самсонове (Рыбас Святослав) [1995, Биографии. Мемуары, аудиокнига, MP3, 128kbps, Конкс Александр]
2015-07-27 08:05
Жертва: Роман о генерале Самсонове




Формат: аудиокнига, MP3, 128kbps
Автор: Рыбас Святослав
Год выпуска: 1995
Жанр: Биографии. Мемуары
Издательство: Нигде не купишь
Исполнитель: Конкс Александр
Продолжительность: 09:35:24


Описание: Одна из самых трагических фигур первой мировой войны - генерал А.В.Самсонов, погибший в ее начале - во время Восточно-прусской операции. Для понимания судьбы Самсонова уместно вспомнить мысль русского историка В.Соловьева о том, что взаимоотношения личности и государства в России чаще всего осуществлялись через жертву.
В романе использованы архивные документы и мемуары участников войны. Издание рассчитано на массового читателя.

Самостоятельная проработка чувства стыда. Первичная сексуальность (Бурхаев Денис) [2014-2015, Вебинар, аудиокнига, MP3, 192kbps, Бурхаев Денис]
2015-07-27 07:28
Самостоятельная проработка чувства стыда. Первичная сексуальность




Формат: аудиокнига, MP3, 192kbps
Автор: Бурхаев Денис
Год выпуска: 2014-2015
Жанр: Вебинар
Издательство: Аудиокнига своими руками
Исполнитель: Бурхаев Денис
Продолжительность: 03:22:40


Описание: Данное интернет–мероприятие будет направлено на то, чтобы любой желающий под моим чутким руководством, используя предложенные мною высокоэффективные практические методики, самостоятельно сумел исчерпать иррациональное чувство стыда в своей психике, автоматически возникающее при знакомстве с женщинами и мешающее открыто выражать свою симпатию. Чтобы молодые люди, которые хотят решить для себя пресловутую проблему «страха подхода», смогли наконец поставить логическую точку и полностью разобраться в этом вопросе.

Тёмная материя, 1 сезон 1-7 серии из 13 / Dark Matter [BaibaKo] (Рон Мерфи, Т.Дж. Скотт, Паоло Барзмен) [2015, фантастика, триллер, HDTVRip-AVC, P]
2015-07-27 06:53
Тёмная материя, 1 сезон 1-7 серии из 13 / Dark Matter
«Бороться, чтобы вспомнить. Сражаться, чтобы выжить...»

Перевод: Профессиональный (многоголосый, закадровый) [BaibaKo]
Cубтитры: отсутствуют
Формат: HDTVRip (AVC), MKV, H.264, AC3
Страна: США
Режиссер: Рон Мерфи, Т.Дж. Скотт, Паоло Барзмен
Жанр: фантастика, триллер
Всего серий: 13
Продолжительность: ~ 00:45:00 серия
Год выпуска: 2015
В ролях: Марк Бендавид, Мелисса О’Нил, Энтони Лемке, Алекс Маллари мл., Джоделль Ферланд, Роджер Р. Кросс, Зои Палмер, Дэвид Хьюлетт, Джессика Сайпос, Расселл Юэнь

Описание: Заброшенный космический корабль.
Шесть человек выходят из состояния стазиса и понимают, что все они потеряли память. Никто из героев не помнит собственного имени, а также того, как и с какой целью он оказался на борту. Каждый из членов экипажа имеет свои способности и навыки, которые, несмотря на амнезию, остались при них. И лишь объединившись в единую команду и заручившись поддержкой находящегося на борту робота, герои смогут понять, что же произошло на самом деле. После чего им предстоит задуматься о выживании, ведь сам корабль и космическое пространство вокруг него таят множество неприятных сюрпризов. Впрочем, чрезвычайно опасны и сами загадочные пассажиры...


Рейтинг:


Видео: 1024х576 (16:9), 23,976 fps, AVC (х264), High@L3.1, ~2000 Kbps avg, 0.141 bit/pixel
Аудио: 48.0 KHz, AC3 Dolby Digital, 6 channels (Front: L C R, Side: L R, LFE), ~384 kbps avg

Доп. информация: звук перевода и оригинальная дорожка Dolby Digital 5.1
Рип с HDTVRip 1080р
Полноэкранное изображение (16:9)

MediaInfo
    Общее
    Уникальный идентификатор : 289101984099275981803573935785438233310 (0xD97F044E0B3EC600F88CB78C2BBA42DE)
    Полное имя : D:\Video\...\temnaya_materiya_s01e01_[tfile.me].mkv
    Формат : Matroska
    Версия формата : Version 2
    Размер файла : 738 Мбайт
    Продолжительность : 43 м.
    Общий поток : 2387 Кбит/сек
    Дата кодирования : UTC 2015-06-13 22:33:06
    Программа кодирования : Lavf54.63.104
    Библиотека кодирования : Lavf54.63.104

    Видео
    Идентификатор : 1
    Формат : AVC
    Формат/Информация : Advanced Video Codec
    Профиль формата : High@L3.1
    Параметр CABAC формата : Да
    Параметр ReFrames формата : 2 кадра
    Идентификатор кодека : V_MPEG4/ISO/AVC
    Продолжительность : 43 м.
    Битрейт : 2000 Кбит/сек
    Ширина : 1024 пикселя
    Высота : 576 пикселей
    Соотношение сторон : 16:9
    Режим частоты кадров : Постоянный
    Частота кадров : 23,976 кадра/сек
    Цветовое пространство : YUV
    Субдискретизация насыщенности : 4:2:0
    Битовая глубина : 8 бит
    Тип развёртки : Прогрессивная
    Бит/(Пиксели*Кадры) : 0.141
    Размер потока : 604 Мбайт (82%)
    Библиотека кодирования : x264 core 129
    Настройки программы : cabac=1 / ref=2 / deblock=1:0:0 / analyse=0x3:0x113 / me=hex / subme=6 / psy=1 / psy_rd=1.00:0.00 / mixed_ref=1 / me_range=16 / chroma_me=1 / trellis=0 / 8x8dct=1 / cqm=0 / deadzone=21,11 / fast_pskip=1 / chroma_qp_offset=-2 / threads=4 / lookahead_threads=1 / sliced_threads=0 / nr=0 / decimate=1 / interlaced=0 / bluray_compat=0 / constrained_intra=0 / bframes=0 / weightp=2 / keyint=250 / keyint_min=25 / scenecut=40 / intra_refresh=0 / rc_lookahead=40 / rc=2pass / mbtree=1 / bitrate=2000 / ratetol=1.0 / qcomp=0.60 / qpmin=10 / qpmax=51 / qpstep=4 / cplxblur=20.0 / qblur=0.5 / ip_ratio=1.41 / aq=1:1.00
    Default : Да
    Forced : Нет

    Аудио
    Идентификатор : 2
    Формат : AC-3
    Формат/Информация : Audio Coding 3
    Расширение режима : CM (complete main)
    Параметр Endianness формата : Big
    Идентификатор кодека : A_AC3
    Продолжительность : 43 м.
    Вид битрейта : Постоянный
    Битрейт : 384 Кбит/сек
    Каналы : 6 каналов
    Расположение каналов : Front: L C R, Side: L R, LFE
    Частота : 48,0 КГц
    Битовая глубина : 16 бит
    Метод сжатия : С потерями
    Размер потока : 119 Мбайт (16%)
    Default : Да
    Forced : Нет
Внимание! Раздача ведётся путём добавления новых серий. Добавлена 7-я серия

При каждом добавлении новой серии создается новый торрент-файл. Чтобы начать докачку новой серии, пользователям необходимо сделать следующее:
(1) остановить скачивание
(2) удалить старый торрент у себя из клиента (старые серии удалять не надо)
(3) скачать новый торрент и запустить его у себя в клиенте вместо старого, при этом указать клиенту путь в старую папку куда и должно происходить скачивание новых серий.

Ваша программа (например UTorrent) при этом должна произвести хеширование (проверку) старой папки (если не производит сама - помогите ему сделать это), и будет докачивать только те серии которых у вас ещё нет. Старые серии при этом не удаляются, а продолжают раздаваться (Важно!)

Eсли вы уже удалили старые серии, то предотвратить повторную закачку старых серий можно, отжав галочку в соответствующих местах при запуске нового торрента. По возможности, желательно не удалять старые серии как можно дольше, чтобы релизёр не столько продолжал раздавать старые серии, а смог сконцентрироваться на новых

VA - After Work Lounge [2015, Downtempo, Chillout, Lounge, MP3]
2015-07-26 21:16
VA - After Work Lounge
Формат: MP3, tracks, 320kbps
Год выпуска: 2015
Страна: All World
Жанр: Downtempo, Chillout, Lounge
Продолжительность: 02:59:03
Описание:

Tracklist
01. Leonardo - Intro [01:55]
02. Lisa - Feel Intensity [04:01]
03. M. Vitoria - How Long Can I Wait [05:50]
04. Paco Flores - Andalucia [05:33]
05. M. Vitoria - Spain [03:29]
06. M. Vitoria - Setareh [04:04]
07. Oscar Salguero - Lounge, Shopping and Go [04:54]
08. M. Vitoria - Love Devotion Surrender [05:05]
09. Oscar Salguero - Nadia [05:59]
10. Ibiza Chill Out - Parapa Pa [04:24]
11. Oscar Salguero - Achtung Baby [03:23]
12. M. Vitoria - Snake Dance [07:11]
13. M. Vitoria - Chill in Out [04:49]
14. Oscar Salguero - Inca Adventure [04:48]
15. Leonardo - Hit the Trumpet [03:36]
16. Oscar Salguero - The Moon Is Watching Us [03:54]
17. Lisa - Make It Yours [03:12]
18. Oscar Salguero - Chillout Night [05:31]
19. Hollow Earth - London Ascension [06:14]
20. Oscar Salguero - Sponge Lounge [04:42]
21. M. Vitoria - Dream [06:44]
22. Oscar Salguero - Supaloopa [03:40]
23. M. Vitoria - Do Me a Favor [06:41]
24. Oscar Salguero - Cool World [04:51]
25. M. Vitoria - Shakra Naom [05:57]
26. Noel Gitman - Foo Doora - Baraka Remix [04:59]
27. Oscar Salguero - Let Me Be Close to You [04:58]
28. James Jensen - Walk on By [04:10]
29. J. Jensen - Outro [02:15]
30. Maria - I Can Feel You [03:21]
31. Leonardo - Shout It Out [03:51]
32. Bianca - Pass the Midnight [03:45]
33. Leonardo - Chink Your Glasses [03:35]
34. Maria - Sway with Me [03:16]
35. Nicole - Into It [03:18]
36. Oscar Salguero - Duff Pang [04:03]
37. Bluesolar - Sunrise with You - Chillout Mix [04:05]
38. Javah - Hallowed Ground - Ambient Mix [04:05]
39. M. Vitoria - Call It Love [06:10]
40. Akira - Piece of Heaven - Ballad Mix [03:05]

Красные Будды - Жизнь красивая [2015, Breakbeat, Rave, MP3]
2015-07-26 21:16
Красные Будды - Жизнь красивая
Формат: MP3, tracks, 320kbps
Год выпуска: 2015
Страна: Россия
Жанр: Breakbeat, Rave
Продолжительность: 00:18:04

Описание:

01. Жизнь красивая
02. Straight edge rave
03. Cпокойствие
04. Бикл
05. Боль

Minecraft 1.8.7 + All versions Tluncher [2015, Sandbox]
2015-07-26 21:11
Minecraft 1.8.7 + All versions Tluncher
Год выпуска: 2015
Жанр: Sandbox
Разработчик: Mojang
Издательство: SetDriveRus
Сайт разработчика: www.minecraft.net
Язык интерфейса: мультиязычный (стандартный - русский)
Платформа: PC
Системные требования: Операционная система: Windows Xp, 7, 8, 8.1
Процессор: Pentium 800MHz
Оперативная память: 512 Мб
Видео карта: для данной игры подойдёт любая видеокарта совместимая с Direct-X 9
Версия Direct X: 9
HDD: 170мб
Описание: Minecraft — это строительная игра жанра «песочница», вдохновлённая Infiniminer, Dwarf Fortress и Dungeon Keeper и созданная Маркусом Перссоном, основателем Mojang AB. Игра позволяет игрокам создавать и разрушать различные блоки и использовать предметы в трёхмерной окружающей среде. Игрок управляет персонажем, который может разрушать или устанавливать блоки, формируя фантастические структуры, создания и художественные работы в одиночку или коллективно с другими игроками на различных многопользовательских серверах в разных игровых режимах.
Доп. информация: Установка и запуск игры:
1. Откройте скачанный файл
2. Нажмите Извлечь
3. Выберите версию в лаунчере
4. Играйте!



Legends of Eisenwald / Легенды Эйзенвальда Update [Rеpack ] [2015, Strategy, RPG, 3D]
2015-07-26 21:05
Legends of Eisenwald / Легенды Эйзенвальда [Rеpack ] [RUS/ENG/Multi6] (2015) (v 1.0.0.6 Update 6)

Повтор - http://tfile.me/forum/viewtopic.php?t=731487

Год выпуска: 2 июля 2015
Жанр: Strategy, RPG, 3D
Разработчик: Aterdux Entertainment
Издательство: Aterdux Entertainment
Сайт разработчика: Не указан
Язык интерфейса: Русский
Платформа: PC
Системные требования: • Операционная система: Windows XP/Vista/7/8
• Процессор: Intel|AMD dual-core 2.0 ГГц
• Оперативная память: 2 Gb
• Видеокартар: 1024 МБ с поддержкой DX9C (Radeon HD 6670, GeForce GT 630)
• Свободного места на жестком диске: 2.1 ГБ
pic
Описание: «Легенды Эйзенвальда» – приключенческая игра с тактическими боями и стратегическими элементами. Возглавьте небольшое феодальное войско и попробуйте отстоять свое право на жизнь в жестоком мире средневековья. Вас ждут таинственные земли старой Германии, где ожили во плоти суеверия прошлого. Это не глянцевый сказочный мир, здесь нет эльфов и драконов. Только люди – и их страсти, грехи и страхи, подчас принимающие вполне осязаемую форму. Какую дорогу вы выберете? Жизнь по совести? Могущество и власть? А может, справедливость? И какова она, ваша справедливость? “«Легенды Эйзенвальда» обладают потрясающей увлекательностью, затягивающей игрока не хуже классических представителей жанра. Эффект «ещё одна битва и спать» работает в игре в полной мере.” “«Легенды Эйзенвальда» вселяют надежду на то, что у игровой индустрии на постсоветском пространстве есть будущее за пределами мобильно-онлайнового болота. Настоящий подарок любителям RPG «старой школы».”
Торент презалит.Пропатчено до версии v 1.0.0.6 (Update 6)
Legends of Eisenwald / Легенды Эйзенвальда [Steam-Rip]

Доп. информация: Запускаем SETUP.exe
Устанавлием..
Играем


Update

Patch 1.006 - notes
17 ИЮЛЯ - ALEXANDER (ATERDUX)
Added:
3D sounds for the map and DirectSound3D support
Button to pay off debts to mercenaries

Fixed:
Talent "Master-horseman" now works correctly
Now in all cases correctly loads the last save of a player. It didn't work correctly before.
In chapter Wizard Paths Dewalt's estate now is given to the player when meeting the inquisitor Dunstan during the daytime.
Skill "Feudal" now correctly reduces the hiring cost
Text showing beyond the borders of the screen on monitors with resolution 4:3

Добавлено:
3D звуки на глобальной карте и поддержка DirectSound3D:
кнопка для оплаты задолженности наемникам.

Исправлено:
умение мастер наездник теперь работает как положено.
теперь во всех случаях корректно загружается последнее сохранение игрока. До этого оно работало не всегда правильно.
теперь на сценарии "Заколдованные тропы" усадьба Девальта переходит во владение игрока при встрече с Инквизитором Данстаном днем.
навык феодал корректно уменьшает стоимость найма
вылезание текста легенд за границу экрана на мониторах с разрешением 4:3

Patch 1.005 - notes
11 ИЮЛЯ - ALEXANDER (ATERDUX)
Things added:
Informational hint that shows income and expenses on buildings and mercenaries
Added: switching system locale depending on the language selected. Maybe it will fix errors with ???? in names on the minimap.
Dialog animation for werewolves
Now if you accidentally lose symbol of a faction (Wolves, Fichtens, Diocese) events in the last chapter will be correct.
Now in the scenario Way Home a quest - "Get on Grossenhof side" will not close too early when talking to William.

Fixed:
Ramming strike works now correctly, not just in one round. Distance calculation has been fixed.
Pikemen's strike over a hex processes correctly poisoning, stunning and other similar joys of melee strikes.
Bosses personalization has been turned off so they don't get renamed.
One of the ways of the quest - Problems with the merchants guild in the scenario "Way Home"
The tag of the Town's Guard in the Way Home
Some floating icons in combat work correctly now that activate in the end of a character's turn. For example: regeneration, poison etc.

Добавлено:
в информационном хинте показывается разбивка доходов/расходов по строениям и наемникам.
переключение системной локали, в зависимости от выбранного языка. Возможно исправит ошибки с ?????? в названиях на миникарте.
Теперь при случайной утере символа одной из фракций (Волки, Фихтены, Диоцз), события в последнем эпизоде развиваются корректно.
Оборотням добавлена диалоговая анимация.
Теперь в сценарии "Дорога домой" квест "Стать на сторону Гроссенхоффа" не закрывается преждевременно при разговоре с Вильямом.

Исправлено:
таранный удар корректно работает не только на одном ходу и всегда правильно учитывает дистанцию.
удар пикинеров через клетку корректно обрабатывает отравления, оглушения и прочие подобные радости рукопашных ударов.
для боссов отключена персонализация, что бы не переименовывались.
Один из вариантов прохождения квеста "Проблемы торговой гильдии" на сценарии "Дорога домой"
Тэг у Городской Стражи в сценарии "Дорога домой"
Снова аботают некоторые отлетающие иконки, которые срабатывают в конце хода персонажа. Например: регенерация, яд и т.д.

Особенности игры

- Оригинальная динамичная система боя: нет «очков перемещения», каждый ход вы наносите удар;
- Возможность индивидуально экипировать каждого бойца в своем войске;
- Большой выбор оружия, заклинаний и способностей
- Богатые деревья развития бойцов; при повышени персонажи не только становятся сильнее, но и меняются внешне;
- Увлекательный нелинейный сюжет;
- Самобытный игровой мир без приевшихся штампов фэнтези;
- Большое приключение: 8 глав основной кампании и 2 дополнительных сценария, в общем более 50 часов геймплея;
- Красивый симфонический саундтрек в средневековом стиле;
- Редактор сценариев с полным набором инструментов разработчиков

Информация о релизе

- Ничего не вырезано / Не перекодировано
- Пропатчено до версии v 1.0.0.6 (Update 6)
- Время установки 2 минута

The Order Of Chaos - Дискография [2009 - 2015, Heavy Thrash Metal, MP3]
2015-07-26 20:58
The Order Of Chaos - Дискография
Формат: MP3, tracks, 320kbps
Год выпуска: 2009 - 2015
Страна: Канада
Жанр: Heavy Thrash Metal
Продолжительность: 02:37:01
Описание:

2009 - The Order Of Chaos, 00

01 Get In The Pit
02 Invictus
03 Hate What You've Become
04 Forever In Hell
05 Sullen Darkness
06 Neverending
07 Cast In Stone
08 Left In Ruins

2011 - Burn These Dreams, 00

01 Burn These Dreams
02 The Order Of Chaos
03 Hell Is Forever
04 Chaos In Cairo
05 For Another Moment
06 Darklord
07 The Size Of Her Diamond
08 End Of An Era
09 A Torturer's Apprentice
10 Guns 'N' Order
11 Sexwitch
12 Victim Of Circumstance

2015 - Apocalypse Moon, 00

01 The Anthem Of Pain
02 Death After Life
03 Indoctrination
04 Downfall
05 Evil Surrounds Me
06 Survival Of The Richest
07 Apocalypse Moon
08 The Venom
09 Sexwitch
10 Victim Of Circumstance
11 Deceiver
12 The Devil That You Know

Семён Ифраимов - Опять звонят колокола [2008, Шансон, MP3]
2015-07-26 20:53
Семён Ифраимов - Опять звонят колокола
Формат: MP3, tracks, 320kbps
Год выпуска: 2008
Страна: Кавказ
Жанр: Шансон
Продолжительность: 00:44:05

Описание:

01. Опять звонят колокола
02. Магадан
03. Голуби
04. Без тебя
05. Ностaльгия
06. Последний лист осенний
07. Мурка
08. Неповторимая
09. Отпускаю
10. Ресторан

The Binding of Isaac: Rebirth Update [Repack] [2014, Аркада]
2015-07-26 20:42
The Binding of Isaac: Rebirth [UPDATE] [Repack] [RUS / ENG] (2014)
Год выпуска: 4 ноября 2014
Жанр: Аркада
Разработчик: Nicalis, Inc. , Edmund McMillen
Издательство: Nicalis, Inc.
Сайт разработчика: Не указан
Язык интерфейса: Русский / Английский
Платформа: PC
Системные требования: • Операционная система: Windows XP/ Vista/7/8
• Процессор: Pentium IV 1,8 ГГц
• Оперативная память: 1 Гб
• Видеокарта: 256 Мб
• Свободного места на жестком диске: 450 мб
Описание: The Binding of Isaac: Rebirth - это изометрическая приключенческая инди-игра с ролевыми элементами, ремейк The Binding of Isaac. Rebirth добавляет в игру новые локации, предметы, сокровища, противников и кооперативный режим для двух игроков.
Доп. информация: Установить
Играть!


Особенности репака

The Binding of Isaac: Rebirth
Версия игры - последняя на 11.07.2015
Ничего не вырезано/перекодировано
Вшит русификатор текста от ZoG Forum Team v0.51 beta

Авторы переводы

Шрифты: makc_ar, darksoul21121, Black_Sun
Перевод текста: strelokhalfer, Black_Sun и darksoul21121
Помощь в переводе: Dark_Nir, Some1
Перерисовка текстур: strelokhalfer
Разбор ресурсов и формата файлов игры: Aluigi, Haoose, h4x0r, Black_Sun

Посейдон / Poseidon (Вольфганг Петерсен ) [2006, боевик, триллер, приключения, BDRip] DUB+AVO
2015-07-26 20:40
Посейдон / Poseidon

Перевод: Профессиональный (полное дублирование) + Авторский (одноголосый) [Немахов], субтитры: отсутствуют
Формат: BDRip, AVI, XviD, AC3
Страна: США
Режиссер: Вольфганг Петерсен
Жанр: боевик, триллер, приключения
Продолжительность: 01:38:14
Год выпуска: 2006
В ролях: Курт Расселл, Джош Лукас, Джасинда Барретт, Ричард Дрейфус, Джимми Беннетт, Эмми Россум, Майк Фогель, Андре Брогер
Описание: Под ударом спонтанно возникшей в Атлантическом океане волны-убийцы, роскошный круизный лайнер за несколько секунд переворачивается и начинает идти ко дну. Несколько чудом уцелевших пассажиров вынуждены объединить усилия ради спасения своих жизней. Корабль быстро заполняется водой, а они должны преодолеть разногласия и принимать судьбоносные решения на своем отчаянном пути к поверхности.



Видео: 720x304 (2.37:1), 23.976 fps, XviD build 50 ~1799 kbps avg, 0.34 bit/pixel
Аудио #1: Русский: 48 kHz, AC3 Dolby Digital, 3/2 (L,C,R,l,r) + LFE ch, ~448 kbps [Профессиональный (полное дублирование)]
Аудио #2: Русский: 48 kHz, AC3 Dolby Digital, 3/2 (L,C,R,l,r) + LFE ch, ~448 kbps [Авторский (одноголосый) [Немахов]]
Аудио #3: Английский: 48 kHz, AC3 Dolby Digital, 3/2 (L,C,R,l,r) + LFE ch, ~448 kbps[Оригинал]

МediaInfo
General
Полное имя : C:\Users\Юрик\Downloads\Poseidon.2006.BDRip.avi
Формат : AVI
Формат/Информация : Audio Video Interleave
Профиль формата : OpenDML
Размер файла : 2.17 GiB
Продолжительность : 1h 38mn
Общий поток : 3 167 Kbps
Программа кодирования : VirtualDubModRus 1.5.10.2 (build 2542/release)
Библиотека кодирования : VirtualDubMod build 2542/release

Video
Идентификатор : 0
Формат : MPEG-4 Visual
Профиль формата : Advanced Simple@L5
Параметр BVOP формата : 2
Параметр QPel формата : No
Параметр GMC формата : No warppoints
Параметр матрицы формата : Custom
Идентификатор кодека : XVID
Идентификатор кодека/Подсказка : XviD
Продолжительность : 1h 38mn
Битрейт : 1 800 Kbps
Ширина : 720 pixels
Высота : 304 pixels
Соотношение сторон : 2.35:1
Частота кадров : 23.976 fps
Цветовое пространство : YUV
Субдискретизация насыщенности : 4:2:0
Битовая глубина : 8 bits
Тип развёртки : Progressive
Метод сжатия : Lossy
Бит/(Пиксели*Кадры) : 0.343
Размер потока : 1.23 GiB (57%)
Библиотека кодирования : XviD 1.2.1 (UTC 2008-12-04)

Audio #1
Идентификатор : 1
Формат : AC-3
Формат/Информация : Audio Coding 3
Расширение режима : CM (complete main)
Параметр Endianness формата : Big
Идентификатор кодека : 2000
Продолжительность : 1h 38mn
Вид битрейта : Constant
Битрейт : 448 Kbps
Каналы : 6 channels
Расположение каналов : Front: L C R, Side: L R, LFE
Частота : 48.0 KHz
Метод сжатия : Lossy
Размер потока : 315 MiB (14%)
Выравнивание : Split accross interleaves
Продолжительность промежутка : 42 ms (1.00 video frame)
Время предзагрузки промежутка : 500 ms

Audio #2
Идентификатор : 2
Формат : AC-3
Формат/Информация : Audio Coding 3
Расширение режима : CM (complete main)
Параметр Endianness формата : Big
Идентификатор кодека : 2000
Продолжительность : 1h 38mn
Вид битрейта : Constant
Битрейт : 448 Kbps
Каналы : 6 channels
Расположение каналов : Front: L C R, Side: L R, LFE
Частота : 48.0 KHz
Метод сжатия : Lossy
Размер потока : 315 MiB (14%)
Выравнивание : Split accross interleaves
Продолжительность промежутка : 42 ms (1.00 video frame)
Время предзагрузки промежутка : 500 ms

Audio #3
Идентификатор : 3
Формат : AC-3
Формат/Информация : Audio Coding 3
Расширение режима : CM (complete main)
Параметр Endianness формата : Big
Идентификатор кодека : 2000
Продолжительность : 1h 38mn
Вид битрейта : Constant
Битрейт : 448 Kbps
Каналы : 6 channels
Расположение каналов : Front: L C R, Side: L R, LFE
Частота : 48.0 KHz
Метод сжатия : Lossy
Размер потока : 315 MiB (14%)
Выравнивание : Split accross interleaves
Продолжительность промежутка : 42 ms (1.00 video frame)
Время предзагрузки промежутка : 500 ms

Подлая элита России (Мухин Ю.) [2013, публицистика, FB2, OCR без ошибок]
2015-07-26 20:36
Подлая элита России.
ISBN: 978-5-99550-688-1
Серия: "Грязное белье" Кремля
Формат: FB2, OCR без ошибок
Автор: Мухин Ю.
Год выпуска: 2013
Жанр: публицистика
Издательство: Яуза-Пресс
Язык: русский
Количество страниц: 288
Описание: «Рыба гниет с головы» – эта народная мудрость выстрадана всей историей России, от Рюрика до наших дней. Когда во главе государства стоит здоровая элита, которая служит народу, а не собственным шкурным интересам, страна удивляет весь мир невиданными темпами развития – вспомните хотя бы великую Сталинскую эпоху. Увы, такая власть – скорее исключение, чем правило, доказательством чему крах Российской империи и Советского Союза. Почему наша «элита» с удручающей регулярностью разлагается и вырождается в паразитирующий класс, который раз за разом губит Отечество? Как «сливки общества» превращаются в «г… нации», нахлебников и разрушителей державы? Почему даже Сталину не удалось предотвратить предательство и самоубийство партии, продавшейся за западные объедки и позорно прос…шей СССР? Что за проклятие тяготеет над кремлевской властью? Кто виноват во всех наших бедах? И что делать, дабы впредь Россия не «гнила с головы»?. Ведущий историк и публицист патриотических сил знает ответ на все эти вопро

Власть без мозгов. Отделение науки от государства (Алфёров Ж.) [2012, публицистика, FB2, OCR без ошибок]
2015-07-26 20:19
Власть без мозгов. Отделение науки от государства.
ISBN: 978-5-4320-0055-2
Серия: Политические тайны XXI век
Формат: FB2, OCR без ошибок
Автор: Алфёров Ж.
Год выпуска: 2012
Жанр: публицистика
Издательство: Алгоритм
Язык: русский
Количество страниц: 224
Описание: Жорес Иванович Алферов — лауреат Нобелевской премии по физике, академик РАН, известен также своей широкой общественной деятельностью. Будучи депутатом от КПРФ Госдумы нескольких созывов, он неизменно отстаивал интересы российской науки и хорошо знал, в каком положении она находится.
По его мнению, десять процентов населения России, захватив в свои руки все национальные богатства, мало заботятся о том, чтобы наша страна вышла на передовые позиции в мире. В результате состояние науки в России близко к катастрофическому, тысячи и тысячи талантливых ученых вынуждены покидать Родину, а те, кто остается, работают в тяжелейших условиях. На словах власть заботится о научном потенциале государства, но на деле положение такое, что наукой могут заниматься сегодня только несгибаемые оптимисты.
Обо всем этом Ж.И. Алферов пишет в своей книге, делает прогнозы на будущее и предлагает конкретные меры по выводу российской науки из гл

Мега-акула против Колосса / Mega Shark vs. Kolossus (Кристофер Рэй / Christopher Ray) [2015, ужасы, фантастика, боевик, триллер, HDRip] ENG
2015-07-26 20:19
Мега-акула против Колосса / Mega Shark vs. Kolossus

Язык: Английский, субтитры: отсутствуют
Формат: HDRip, AVI, XviD, AC3
Страна: США
Режиссер: Кристофер Рэй / Christopher Ray
Жанр: ужасы, фантастика, боевик, триллер
Продолжительность: 01:25:16
Год выпуска: 2015
В ролях: Иллиана Даглас, Эми Райдер, Броди Хатцлер, Тара Прайс, Эрнест Томас, Тим Эбелл, Брайан Ханна, Оззи Девриш, Клэр Грант, Элисон Хэйслип

Описание: В поисках нового альтернативного источника энергии Россия случайно пробуждает Колосса - огромного "апокалиптического робота, устройство, законсервированное по окончанию "холодной войны". Параллельно на горизонте событий появляется легендарная Мега-акула, угрожающая безопасности планеты. И теперь "мир должен выяснить, как остановить смертельных гигантов, прежде чем они уничтожат все на земле и на море".



Видео: 720x400 (1.80:1), 24.998 fps, XviD MPEG-4 ~1418 kbps avg, 0.20 bit/pixel
Аудио: 48 kHz, AC3 Dolby Digital, 2/0 (L,R) ch, ~384 kbps