Последние новости

Последний луч света / The Last Light (Эндрю Хайатт) [2014, триллер, драма, WEB-DLRip] VO
2014-07-28 19:42
Последний луч света / The Last Light
«Ты что-то помнишь»

Перевод: Любительский (одноголосый) [datynet]

Cубтитры: отсутствуют

Формат: WEB-DLRip, AVI, XviD, MP3

Страна: США

Режиссер: Эндрю Хайатт

Жанр: триллер, драма

Продолжительность: 01:33:09

Год выпуска: 2014

В ролях: Эдвард Ферлонг, Тахина Тоцци-МакМанус, Джефф Фэйи, Ивонн Зима, Эд Куинн, Молли Хэйгэн, Сет Д. Митчелл

Описание: Семь незнакомых друг с другом людей оказываются в ловушке внутри заброшенной больницы после необъяснимых апокалиптических событий. Помимо простого выживания, они должны бороться с загадочными существами, которые выслеживают их по одиночке.

_______________

Видео: 720x384 (1.88:1), 23.976 fps, XviD build 50 ~1895 kbps avg, 0.29 bit/pixel
Аудио: 44.100 kHz, MPEG Layer 3, 2 ch, ~192.00 kbps avg

M.O.T.H. - Mars On The Horizon [2014, Hard Rock, Heavy Progressive Rock, Progressive Rock, MP3]
2014-07-28 19:41
M.O.T.H. - Mars On The Horizon

Формат: MP3, tracks, 320kbps
Год выпуска: 2014
Страна: USA
Жанр: Hard Rock, Heavy Progressive Rock, Progressive Rock
Продолжительность: 00:44:25
Описание:

Треклист

01. The Most Dangerous Game (06:04)
02. Break You (03:50)
03. Angel of Chrome (05:50)
04. Human Chain (05:39)
05. Open up the Door (03:46)
06. Spinner's End (04:20)
07. East of Eden (04:37)
08. A World Apart (05:03)
09. A Farewell to the Heart (05:10)


Дополнительная информация:

Альбом Hard Rock команды из Сиэтла "M.O.T.H.", официальный релиз 2 сентября 2014 года.

Релиз проверен Norton 360™

Discovery. Дневники великой войны. Бездна / Diaries of The Great War (Ян Петер) [2014, документальный, HDTVRip] VO
2014-07-28 19:38
Дневники великой войны. Бездна / Discovery. Diaries of The Great War

Перевод: Профессиональный (одноголосый), cубтитры: отсутствуют
Формат: HDTVRip, AVI, XviD, AC3
Страна: Германия, Франция, Канада
Режиссер: Ян Петер
Жанр: документальный
Продолжительность: 00:44:10
Год выпуска: 2014

Описание: Эпохальные события складываются из судеб отдельно взятых людей. Новая программа Discovery Channel «Дневники великой войны», приуроченная к 100-летию со дня начала Первой мировой – это летопись, основанная на воспоминаниях тех, кто видел ее собственными глазами. Создатели проекта отсмотрели более 1000 дневников и отобрали 14 самых ярких, искренних, трогательных и шокирующих. Их авторы жили в разных странах, родились в разные годы и посвятили себя разным профессиям, но всех объединяет одно – война ворвалась в их жизни и, полностью их изменила. Благодаря игре актеров и компьютерной графике история Первой мировой предстает перед нами в совершенно ином свете.

Видео: 720x400 (1.80:1), 50 fps, XviD build 50 ~1520 kbps avg, 0.11 bit/pixel
Аудио: 48 kHz, AC3 Dolby Digital, 2/0 (L,R) ch, ~192 kbps

Блондинка в эфире / Walk of Shame (Стивен Брилл) [2014, комедия, приключения, BDRip-AVC] DUB
2014-07-28 19:34
Блондинка в эфире / Walk of Shame
«Улетная ночь. Непредсказуемые последствия»

Перевод: Профессиональный (полное дублирование) [Лицензия]

Субтитры: русские, английские [srt*]

Формат: BDRip-AVC, MKV, H.264, AC3

Страна: США

Режиссер: Стивен Брилл

Жанр: комедия, приключения

Продолжительность: 01:34:28

Год выпуска: 2014

В ролях: Элизабет Бэнкс, Джеймс Марсден, Джиллиан Джейкобс, Сара Райт, Итан Сапли, Билли Барр, Кен Давитян, Ларри Джиллиард мл., Альфонсо МакОли, Дэвон МакДональд

Описание: После провала собеседования на перспективную должность на Лос-Анджелесском телевидении амбициозная телеведущая с горя уходит в загул. Проведя бурную ночь, она приходит в себя утром на улице, не имея при себе ни денег, ни паспорта, ни машины… Есть только мобильный, в котором она читает смс: «Поздравляем! Вы приняты на работу. Сегодня первый эфир».

________________

Видео: 1020x426 (2.40:1), 23.976 fps, AVC (H.264), High@L4.1 ~ 1758 Кbps, 0.169 bit/pixel

Аудио #1: Русский: 48 kHz, AC3 Dolby Digital, 3/2 (L,C,R,l,r) + LFE ch, ~448 kbps [Профессиональный (полное дублирование)]
Аудио #2: Английский: 48 kHz, AC3 Dolby Digital, 3/2 (L,C,R,l,r) + LFE ch, ~448 kbps [Оригинал] (внешним файлом)

MediaInfo
Format : Matroska
Format version : Version 4 / Version 2
File size : 1.46 GiB
Duration : 1h 34mn
Overall bit rate : 2 207 Kbps
Movie name : Блондинка в эфире / Walk of Shame (2014) HDRip-AVC by RG Torrents.ru
Encoded date : UTC 2014-07-23 22:26:28
Writing application : mkvmerge v7.0.0 ('Where We Going') 32bit built on Jun 9 2014 15:08:34
Writing library : libebml v1.3.0 + libmatroska v1.4.1
Cover : Yes

Video
ID : 1
Format : AVC
Format/Info : Advanced Video Codec
Format profile : High@L4.1
Format settings, CABAC : Yes
Format settings, ReFrames : 12 frames
Codec ID : V_MPEG4/ISO/AVC
Duration : 1h 34mn
Bit rate : 1 758 Kbps
Width : 1 020 pixels
Height : 426 pixels
Display aspect ratio : 2.40:1
Frame rate mode : Constant
Frame rate : 23.976 fps
Color space : YUV
Chroma subsampling : 4:2:0
Bit depth : 8 bits
Scan type : Progressive
Bits/(Pixel*Frame) : 0.169
Stream size : 1.13 GiB (78%)
Title : RG Torrents.ru
Writing library : x264 core 142 r2431 ac76440
Encoding settings : cabac=1 / ref=12 / deblock=1:-2:-1 / analyse=0x3:0x113 / me=umh / subme=10 / psy=1 / psy_rd=1.00:0.00 / mixed_ref=1 / me_range=48 / chroma_me=1 / trellis=2 / 8x8dct=1 / cqm=0 / deadzone=21,11 / fast_pskip=0 / chroma_qp_offset=-2 / threads=6 / lookahead_threads=1 / sliced_threads=0 / nr=0 / decimate=1 / interlaced=0 / bluray_compat=0 / constrained_intra=0 / bframes=8 / b_pyramid=2 / b_adapt=2 / b_bias=0 / direct=3 / weightb=1 / open_gop=0 / weightp=2 / keyint=240 / keyint_min=23 / scenecut=40 / intra_refresh=0 / rc_lookahead=60 / rc=2pass / mbtree=0 / bitrate=1758 / ratetol=1.0 / qcomp=0.60 / qpmin=0 / qpmax=69 / qpstep=4 / cplxblur=20.0 / qblur=0.5 / vbv_maxrate=10000 / vbv_bufsize=12000 / nal_hrd=none / filler=0 / ip_ratio=1.20 / pb_ratio=1.20 / aq=1:1.00
Language : English
Default : Yes
Forced : No

Audio
ID : 2
Format : AC-3
Format/Info : Audio Coding 3
Mode extension : CM (complete main)
Format settings, Endianness : Big
Codec ID : A_AC3
Duration : 1h 34mn
Bit rate mode : Constant
Bit rate : 448 Kbps
Channel(s) : 6 channels
Channel positions : Front: L C R, Side: L R, LFE
Sampling rate : 48.0 KHz
Bit depth : 16 bits
Compression mode : Lossy
Stream size : 303 MiB (20%)
Language : Russian
Default : Yes
Forced : No

Text #1
ID : 3
Format : UTF-8
Codec ID : S_TEXT/UTF8
Codec ID/Info : UTF-8 Plain Text
Language : Russian
Default : No
Forced : No

Text #2
ID : 4
Format : UTF-8
Codec ID : S_TEXT/UTF8
Codec ID/Info : UTF-8 Plain Text
Language : English
Default : No
Forced : No

Menu
00:00:00.000 : en:00:00:00.000
00:02:27.689 : en:00:02:27.689
00:07:23.735 : en:00:07:23.735
00:12:20.531 : en:00:12:20.531
00:17:16.702 : en:00:17:16.702
00:22:08.118 : en:00:22:08.118
00:26:53.737 : en:00:26:53.737
00:32:04.464 : en:00:32:04.464
00:39:18.898 : en:00:39:18.898
00:46:26.409 : en:00:46:26.409
00:51:02.977 : en:00:51:02.977
00:54:24.678 : en:00:54:24.678
00:59:49.211 : en:00:59:49.211
01:05:01.523 : en:01:05:01.523
01:07:40.223 : en:01:07:40.223
01:11:44.634 : en:01:11:44.634
01:15:06.252 : en:01:15:06.252
01:22:58.473 : en:01:22:58.473
01:27:27.701 : en:01:27:27.701
01:29:34.703 : en:01:29:34.703

Марк Помирчий - Перемены [1994, Шансон, MP3]
2014-07-28 19:25
Марк Помирчий - Перемены
Формат: MP3, tracks, 320kbps
Год выпуска: 1994
Страна: Россия
Жанр: Шансон
Продолжительность: 01:07:52

Описание:

01 Перемены (посв. Жене)
02 Город
03 Музыкант (посв. А. Вертинскому)
04 Ялта
05 Ольга
06 Гвардия
07 Осенний Вечер (стихи Иосифа Бродского)
08 В Европе Першинги (стихи неизвестного автора)
09 Волшебная Скрипка (стихи Николая Гумилева)
10 Старенький Фотограф
11 Ворон (посвящение Валерию Куранову)
12 Гараж
13 Лето Вроде бы в Разгаре
14 Кадиллак
15 Шаробан
16 Посвящение Бывшим Друзьям

Прости меня, мама / Бандит (1-16 серия из 16) (Егор Грамматиков) [2014, драма, WEB-DLRip]
2014-07-28 19:25
Прости меня, мама / Бандит (1-16 серия из 16)
Перевод: Не требуется, cубтитры: отсутствуют
Формат: WEB-DLRip, AVI, XviD, AC3
Страна: Россия, Свэлл-Фильм
Режиссер: Егор Грамматиков
Жанр: драма
Всего серий: 16
Продолжительность: 16 х ~ 00:45:00
Год выпуска: 2014

В ролях: Владимир Яглыч, Евгения Туркова, Александра Мареева, Сергей Селин, Алексей Ильин, Кирилл Нагиев, Елена Лотова, Наталья Рычкова, Вячеслав Шихалеев, Олег Соколдынский, Антон Ксенев, Екатерина Александрушкина, Роман Агеев, Николай Точилин, Илья Ильин, Борис Миронов, Юлия Бурова, Денис Давыдов, Василий Щипицын, Дмитрий Медведев, Юрий Тарасов, Сергей Барабаш, Анна Казючиц, Юрий Яфаев, Антон Момот, Денис Старков, Елена Муравьёва, Елена Махова, Анна Ходюш, Алексей Франдетти, Александр Усердин, Антон Васильев (III), Сергей Беляев, Илья Ловкий, Дмитрий Родонов

Описание: Действие сериала начинается в сложный для России исторический период — начало 90-х. Главного героя картины осуждают за несовершенное преступление, в наши дни он выходит из тюрьмы и пытается доказать, что был осужден несправедливо…

Рейтинг и доп. инфа:


Видео: 720x400 (1.80:1), 25 fps, XviD build 50 ~1561 kbps avg, 0.22 bit/pixel
Аудио: 48 kHz, AC3 Dolby Digital, 2/0 (L,R) ch, ~192 kbps

Ясновидящая Привороженный (Елена Лакрои) [2012, Реалити-драма, документальный, мистика, SATRip]
2014-07-28 19:14
Ясновидящая. Привороженный
Перевод: Не требуется, cубтитры: отсутствуют
Формат: SATRip, AVI, XviD, AC3
Страна: Россия
Режиссер: Елена Лакрои
Жанр: реалити-драма, документальный, мистика
Продолжительность: 00:44:46
Год выпуска: 2012
В ролях: Арина Евдокимова

Описание: Сериал «Ясновидящая» — это истории, основанные на реальных событиях. Герои — люди разного возраста, социального статуса, материального достатка. Но объединяет их одно — трудная жизненная ситуация, в которую они попали. Арина Евдокимова — главная героиня сериала — реальный практикующий экстрасенс. Дар ясновидения перешёл к Арине по наследству, он передаётся из поколения в поколение в её роду. Каждая серия сериала «Ясновидящая» — это законченное сюжетное повествование, основанное на реальных событиях. Герои сериала — люди разного возраста, социального статуса, материального достатка. Их объединяет одно — трудная жизненная ситуация, в которую они попали. Арина использует свои способности психолога и экстрасенса, чтобы разобраться в проблеме, «открыть глаза» героям на реальное положение дел, направить их, подсказать тактику поведения для улучшения ситуации. Способности экстрасенса и навыки психолога помогают ей параллельно «заглянуть» в прошлое и будущее героев, сформулировать специальные задания, после выполнения которых судьба героев меняется к лучшему…

Видео: 720x400 (1.80:1), 25 fps, XviD build 50 ~1187 kbps avg, 0.17 bit/pixel
Аудио: 48 kHz, AC3 Dolby Digital, 2/0 (L,R) ch, ~192.00 kbps avg

Релиз от:

СерьГа [1994-2011, blues-rock, hard rock, MP3]
2014-07-28 19:13
СерьГа
Формат: MP3, tracks, 320kbps
Год выпуска: 1994-2011
Страна: Россия
Жанр: blues-rock, hard rock
Продолжительность: 12:46:33
Описание:

1.1994 - Собачий вальс 00

01.Спокойной ночи
02.Тёплый воздух от крыш
03.Мы дети - дети БГ
04.А что нам надо
05.Я болен Олей
06.Сабачий вальс
07.Конечно, это ты
08.Серые волки
09.Чертополох
10.Телефонная радость [дочь президента]
11.Новое утро
2.1995 - СерьГа 01

01.Давай
02.А иначе нельзя
03.Ой, пойду, пойду
04.Обеденный марш
05.Так было всегда
06.Здравствуй, мама
07.Разные люди
08.Настроение
09.I wanna kiss you, baby
10.Песенка про страх
11.Возьми мою руку, девочка
12.Я вернусь
13.А что нам надо
14.Надо взять
15.До встречи, друг
3

01.Начало
02.Новое утро
03.Теплый воздух от крыш
04.А иначе нельзя
05.I wonna kiss you baby
06.Ой, пойду, пойду
07.Спокойной ночи
08.Чертополох
09.Давай
10.Надо взять
11.With a little help of my friends
12.Не спеши
13.А что нам надо
14.До встречи, друг
15.Кода
4.1997 - Дорога в ночь 00

01.Спасибо Тебе
02.Давай ходить нагишом
03.Я хочу пить с Тобой
04.ИнтерЗона
05.Песенка про Волосы
06.Я вижу солнце
07.Дорога в Ночь (Памяти Друга)
08.Когда падает Дождь
09.Скажи зачем?
10.С Днём Рождения
11.Подари Мне Страх [Колыбельная]
12.Мир спасёт Красота
51998 - Живая коллекция 01

01.Давай
02.Я хочу пить с тобой
03.Интерзона
04.Собачий вальс
05.Чертополох
06.Я далеко
07.Альтернативная любовь
08.Чужой
09.Я вижу солнце
10.Страна чудес
11.Ночь
12.Теплый воздух от крыш
13.А иначе нельзя
14.А что нам надо
6.1999 - Страна чудес 00

01.Я Далеко
02.Страна Чудес
03.Альтернативная Любовь
04.Жёлтые Письма
05.Я Не Могу Стать Хуже
06.Как Всё Запущено
07.Чудовище
08.Женщина С Веслом
09.Жёлтая Смола
10.Лене
11.Дорога К Тебе
12.Жёлтые Письма (Dreamix)
13.Страна Чудес (Версия 2)
7.2001 - Лучшие песни 01

01.Любовь
02.Привык, забыл, потерял
03.Теплый воздух от крыш
04.Я хочу пить с тобой
05.Я вижу солнце
06.Чужой
07.Страна чудес
08.Дорога в ночь
09.Спокойной ночи
10.Давай
11.Я далеко
12.Желтые письма
13.Интерзона
14.Собачий вальс
15.А что нам надо!
16.Чертополох
8.2003 - Я такой, как все 00

01.Его лицо
02.Ничего нет
03.Любовь
04.Ты никому не нужен
05.Радуга-дуга
06.Чужой
07.Мы дети БГ
08.Привык, забыл и потерял
09.Если б я был...
10.Песня про радость (дум-дум-че-гевара)
11.Ты не придешь
12.Хоббот
13.Я такой, как все
9.2004 - Grand Collection 01

01.Любовь
02.Привык, Забыл И Потерял
03.Теплый Воздух От Крыш
04.Я Хочу Пить С Тобой
05.Я Вижу Солнце
06.Чужой
07.Страна Чудес
08.Дорога В Ночь
09.Спокойной Ночи
10.Давай
11.Я Далеко
12.Желтые Письма
13.Интерзона
14.Собачий Вальс
15.А Что Нам Надо?
16.Чертополох
10.2005 - Ночная дорога в Страну чудес 00

01. HDJ Lev + СерьГа - Дорога в ночь (HDJ version)
02. HDJ Lev + СерьГа - Она счастливее нас (Maximix)
03. HDJ Lev + СерьГа - 25-я (V 2.5)
04. HDJ Lev + СерьГа - Желтые письма (Dreamix)
05. HDJ Lev + СерьГа - Стрекоза (SecretDuomix)
06. HDJ Lev + СерьГа - Ты мало запросил (Railroadmix)
07. HDJ Lev + СерьГа - Страна чудес (HDJ version)
08. HDJ Lev + СерьГа - Одноразовый сон (beta-version)
09. HDJ Lev + СерьГа - Я далеко (No!Guitarmix)
10. HDJ Lev + СерьГа - Интервенция (Full Fool version)
11.2006 - Лови настроение рок-н-ролл 00.57

01.Холодное море молчит (из к/ф 'Первый после бога')
02.25-я
03.Дороги, которые мы выбираем
04.Она счастливее нас
05.Мой город
06.Ты мало запросил
07.Желтые письма
08.Одноразовый сон
09.Тебе никто не нужен
10.Страна чудес
11.Интервенция
12.Дорога в ночь
13.Я далеко
14.Стрекоза
12.2006 - Нормальный человек 00

01.Еще не вечер
02.Не особая
03.Мой город
04.Ты мало запросил
05.Холодное море молчит (ocean version)
06.Десять 'Здравствуй'
07.Нормальный человек
08.Радуга-дуга
09.Тебе никто не нужен
10.Горькая
11.Дороги, которые мы выбираем
12.Холодное море молчит (lake version)
13.2011 - Детское сердце 00

01.Домой (Маме)
02.Кусочек неба
03.Кометы
04.Юрий Гагарин
05.Ангел
06.Твоя душа
07.Вальс поющих мужчин
08.Детское сердце
09.Я вижу солнце
10.Уходят актёры (памяти Влада)
11.Свобода-Химера
14.2011 - Природа, свобода и любовь 00

01.Отпустили холода
02.Стая (с БИ-2)
03.Глядеть на солнце
04.Живая вода
05.Берегите лес
06.Валера, ты где?
07.Московский алкоголик
08.Ты снова ушла
09.Не повезло
10.Нарциссы (с А. Кутиковым)
11.Городская канитель (Свои-Чужие песни)
12.Из воспоминаний советского туриста
13.Мои соседи
14.Вальс пьющих мужчин (по одной)

Дополнительная Информация:

История Группы
Официальным днем рождения группы «СерьГа» является 1 июня 1994 г. Но к этой дате ее основатель Сергей Галанин шел длинным музыкальным путем. Родился 16 ноября 1961 г., затем получил среднее общее и музыкальное образование дирижера ансамбля народных инструментов. До 1985 г. играл в группах ВИА «Редкая птица» и «Гулливер». В декабре 1985 г. произошло одно из важнейших событий в музыкальной жизни Галанина: он стал бас-гитаристом новой группы под названием «Бригада С». Пять лет Гарик Сукачёв и Сергей Галанин были своеобразным локомотивом этой команды, писали песни, собирали стадионы, ездили на фестивали и гастроли… В конце 1989 г. произошла их первая размолвка, в результате которой Сукачёв набрал новый состав «Бригады», а Галанин — группу «Бригадиры» из старых музыкантов. Это был недолгий проект с одним запомнившимся номером — песней и клипом «Чертополох», который Сергей позже включил в свой сольный альбом «Собачий вальс». Вскоре Сергей и Гарик помирились — как оказалось, меньше, чем на два года.

Сергей Галанин покинул «Бригаду С», успев принять участие в записи их последнего номерного диска «Реки». Началом сольной карьеры стал альбом «Собачий вальс», записанный в 1993 г. не с собственной группой, а с сессионными музыкантами при необходимой в то время «одинокому» Сергею продюсерской помощи Дмитрия Гройсмана. В эту пластинку вошли песни, которые до сих пор с удовольствием ставятся в эфир FM-станциями: «А что нам надо», «Спокойной ночи», «Теплый воздух от крыш».

Летом 1994 г. Сергей Галанин обзавелся «СерьГой». Свое название группа получила одновременно от инициалов ее лидера, от привычки последнего носить в ухе серьгу и от имени, которым в детстве Сергея звал его дядя (остальные родственники, к огорчению мальчика, до этого не додумывались).

В 1994 году Сергей Галанин с помощью друзей: «Батя» Ярцев (барабаны), Артем Павленко (гитара), Рушан Аюпов (клавиши, бэк-вокал), Алексей Ярмолин (саксофон), Максим Лихачев (тромбон), Наталья Романова - (вокал)) записал сольный альбом «Собачий вальс», в который вошли такие известные песни как «А что нам надо» и «Спокойной ночи». Музыканты, помогавшие в записи альбома, вскоре объединились в составе новой группы «СерьГа».

Весной 1994 г. Галанин предложил Сергею Левитину (гитара) и Алексею Молодцову (бас), музыкантам из распавшейся группы «Т-34», собрать жизнеспособный концертный состав. К этому трио присоединились гитаристка Любовь «Любаня» Трифанова из группы «Ева» (Екатеринбург) и барабанщик из «Бригады С» Игорь «Батя» Ярцев. Первый выход группы «СерьГа» на публику состоялся 1 июня 1994 года в Ростове-на-Дону на одной сцене с группами «Алиса» и «Чайф».

В конце года Ярцев уходит из группы (сейчас он занят коммерцией) и некоторое время в «СерьГе» за барабанами работает Артур Мечль («Килиманджаро»). В тот же период с группой выступает и Рушан Аюпов (баян, вокал).

В 1995 году группа записывает и выпускает свой первый альбом «СерьГа» и в сентябре отправляется, уже с новым барабанщиком Николаем «Ник-Наком» Балакиревым, в полуторамесячный тур совместно с «Чайф» по дворцам спорта 18 городов России и Украины. (В 1997 году запись этих концертов выйдет на альбоме «Долина глаз»).

В 1996 году «Серьга» становится гостем фестиваля «Rock-Line-96» в аномальной зоне г. Кунгур, на стадионе г. Киева играет вместе с легендарными «Deep Purple» (15 сентября 1996 г.), а в свободное время записывает новый альбом «Дорога в Ночь». 6 ноября 1996 «СерьГа» дает первый полнометражный сольный концерт в Москве («Меридиан»).

Начало 1997 года ознаменовалось двумя выступлениями в ГЦКЗ «Россия» вместе с Chris Norman Band. В том же году в группе произошли большие перемены: Любаня родила ребенка и ушла в декрет, покинул группу А. Молодцов, и его место занял Михаил Прокушенков (экс-«Фонограф джаз-бэнд»). Тогда же Галанин и Левитин делают ремастеринг альбома «Собачий вальс», в результате чего он становится более драйвовым и современно звучащим.

В 1998 году группа расстается со своим старым продюсером Дмитрием «Грозным» Гройсманом. В итоге музыка «СерьГи» стала намного жестче, чем раньше, приблизившись к «альтернативе». Также в составе группы происходят изменения: уходят из группы бас-гитарист Алексей Молодцов и гитаристка Любаня."…. Девушек в коллективе теперь нет. Все, хватит! Тяжело, очень тяжело было мне в этом смысле. " Им на смену приходит новый участник: «…Новый басист, молодой парень Миша Прокушенков — совершенно „отвязанный“ парень, ну вылитый я в молодости.»

После ухода бас-гитаристки Любани «СерьГа» становится «чисто мужским коллективом» и пишет очередной хит «Страна чудес». Предполагалось, что песня войдет в новый альбом под сложносочиненным названием «Как все запущено. Стадия первая: Альтернативная любовь», но тому помешали памятный многим августовский дефолт и отсутствие новых шлягеров. В конце концов пластинка «Страна чудес» увидела свет аж в 2000-м году, а группа в новой обстановке «победившего рокапопса» заметно потерялась — найдя себя, впрочем, в статусе вполне востребованного клубного коллектива.

Беспроигрышным ходом Сергея Галанина стала его идея альбома дуэтов с коллегами по рок-цеху — на «Нашем Радио» презентуются песни «Любовь» (с Константином Кинчевым) и «Когда ты уйдешь» (с Арменом Грягоряном).

«Очень много есть песен, которые ждут своего момента, ведь материала всегда больше, чем нужно для пластинки, поэтому отбирается примерно треть. Вот подходит время, когда записываешь альбом, тогда и начинаешь голову ломать, и это самый болезненный процесс. Песня „Любовь“ несколько раз откладывалась, а летом я ее ни с того под шашлычок сыграл и увидел, что эта песня произвела впечатление. Приехали — и за неделю ее выдали. А через неделю приходит мысль, что надо попробовать поговорить с Костей, было бы здорово, если бы мы ее спели вдвоем. Откуда все приходит — непонятно.»

Кроме того, на новом диске (позиционирующемся как сольная работа Галанина) прозвучали вокальные партии Андрея Макаревича, Гарика Сукачева, Чижа, Макса Покровского, Александра Ф.Скляра и много кого еще, а группа «СерьГа» не без guest stars и не без успеха выступила на фестивале «Нашествие-2002» в Раменском.


Источник:ru.wikipedia.org

Groundhogs - Blues Obituary [1969, Blues Rock, MP3]
2014-07-28 19:04
Groundhogs - Blues Obituary
Формат: MP3, tracks, 160kbps
Год выпуска: 1969
Страна: UK
Жанр: Blues Rock
Продолжительность: 00:34:02
Описание:

1. B.D.D.
2. Daze Of The Weak
3. Times
4. Mistreated
5. Express Man
6. Natchez Burning
7. Light Was The Day


Доп. информация:

Tony McPhee - guitar, mellotron, harmonium, vocals
Pete Cruikshank - bass guitar
Ken Pustelnik - drums


Рип Lossless

Великий подвиг шахтеров в Первой мировой войне (1-4 серии из 5) / The Great Underground War (Пауль Расселл, Андрэа Вогт) [2014, документальный, исторический, HDTVRip 720р] VO
2014-07-28 18:33
Великий подвиг шахтеров в Первой мировой войне (1-4 серии из 5) / The Great Underground War
Перевод: Профессиональный (одноголосый), cубтитры: отсутствуют
Формат: HDTVRip, MKV, H.264, AC3
Страна: Германия, Великобритания
Режиссер: Пауль Расселл, Андрэа Вогт
Жанр: документальный, исторический
Продолжительность: 4 x ~ 00:44:00
Год выпуска: 2014

Описание: Этот документальный сериал рассказывает о невоспетых героях Первой мировой войны — шахтерах, которые для защиты от врага прокладывали туннели сквозь грязь и глину Фландрии, известняк Шампани и гранит Альп. Прокладывая коридоры вглубь гор и холмов, они рисковали своими жизнями ради нескольких метров подземного грунта. Программа рассказывает, как эволюционировала стратегия прокладывания туннелей, техника, придуманная немцами, усовершенствованная британцами и французами, и ставшая военной тактикой для итальянцев и австрийцев. Захватывающие истории из недр земли поведают о том, как в определенный период войны прокладывание лабиринтов туннелей, закладывание взрывчатки и борьба с противником из-под земли стала единственной надеждой на победу. Нас ждут пять легендарных сражений, в которых участвовали солдаты из разных стран мира, пять историй человеческого героизма и самопожертвования. Археологи Анди Хоукинс и Джулия Ричардсон вместе с немецкими, австрийскими и французскими экспертами и историками исследуют настоящие туннели времен Первой мировой от итальянских Альп до бельгийских равнин и попытаются раскрыть всю правду о страшной подземной войне. Мы увидим реконструкции туннелей, сделанные экспертами, понаблюдаем за уникальными съемками с воздуха, а также исследуем старинные фотографии итальянских, австрийских, французских и бельгийских военных бункеров, которые прежде не демонстрировались широкой публике.

Видео: 1280x720р (16:9), 25,000 fps, AVC (x264) High@L4.1, ~ 2423 kbps avg, 0.105bit/pixel
Аудио: 48.0 kHz, AC3, (Front: L R) , 2 ch ~192Kbps avg

MediaInfo
Общее
Уникальный идентификатор : 210119851379516486171203007746290477646 (0x9E139C82A05B958AB7EAC1BA6BD7EA4E)
Полное имя : B:\Velikij_podvig_shahterov_2014_720p_[tfile.me]\Velikij_podvig_shahterov_1_serija_iz_5_2014_[tfile.me].mkv
Формат : Matroska
Версия формата : Version 4 / Version 2
Размер файла : 842 Мбайт
Продолжительность : 44 м.
Общий поток : 2668 Кбит/сек
Дата кодирования : UTC 2014-07-03 20:00:04
Программа кодирования : mkvmerge v6.6.0 ('The Edge Of The In Between') built on Dec 1 2013 17:55:00
Библиотека кодирования : libebml v1.3.0 + libmatroska v1.4.1

Видео
Идентификатор : 1
Формат : AVC
Формат/Информация : Advanced Video Codec
Профиль формата : High@L4.1
Параметр CABAC формата : Да
Параметр ReFrames формата : 5 кадров
Идентификатор кодека : V_MPEG4/ISO/AVC
Продолжительность : 44 м.
Битрейт : 2423 Кбит/сек
Ширина : 1280 пикселей
Высота : 720 пикселей
Соотношение сторон : 16:9
Режим частоты кадров : Постоянный
Частота кадров : 25,000 кадров/сек
Цветовое пространство : YUV
Субдискретизация насыщенности : 4:2:0
Битовая глубина : 8 бит
Тип развёртки : Прогрессивная
Бит/(Пиксели*Кадры) : 0.105
Размер потока : 764 Мбайт (91%)
Библиотека кодирования : x264 core 142 r2431 ac76440
Настройки программы : cabac=1 / ref=5 / deblock=1:-2:-1 / analyse=0x3:0x113 / me=umh / subme=9 / psy=1 / psy_rd=1.00:0.00 / mixed_ref=1 / me_range=16 / chroma_me=1 / trellis=1 / 8x8dct=1 / cqm=0 / deadzone=21,11 / fast_pskip=1 / chroma_qp_offset=-2 / threads=12 / lookahead_threads=1 / sliced_threads=0 / nr=0 / decimate=1 / interlaced=0 / bluray_compat=0 / constrained_intra=0 / bframes=16 / b_pyramid=2 / b_adapt=1 / b_bias=0 / direct=1 / weightb=1 / open_gop=0 / weightp=2 / keyint=250 / keyint_min=23 / scenecut=40 / intra_refresh=0 / rc_lookahead=40 / rc=crf / mbtree=1 / crf=20.0 / qcomp=0.60 / qpmin=0 / qpmax=69 / qpstep=4 / ip_ratio=1.40 / aq=1:1.00
Язык : English
Default : Да
Forced : Нет
Коэффициенты матрицы : BT.709

Аудио
Идентификатор : 2
Формат : AC-3
Формат/Информация : Audio Coding 3
Расширение режима : CM (complete main)
Параметр Endianness формата : Big
Идентификатор кодека : A_AC3
Продолжительность : 44 м.
Вид битрейта : Постоянный
Битрейт : 192 Кбит/сек
Каналы : 2 канала
Расположение каналов : Front: L R
Частота : 48,0 КГц
Битовая глубина : 16 бит
Метод сжатия : С потерями
Размер потока : 60,6 Мбайт (7%)
Default : Да
Forced : Нет
Содержание

01. Холм смерти Вакуа / Vauquois, Hill of Death
Мы узнаем об уникальной технике прокладывания туннелей, используемой британцами, а также, почему немецкая пехота не могла эффективно вести подкопы.
02. Коль-ди-Лана / Col di Lana
Коль-ди-Лана — небольшая гора, где итальянская армия проложила туннель под оборонными укреплениями австрийцев, и затем взорвала вершину горы, в результате чего погибло 200 солдат.
03. Ипрские туннели / The Mines of Ypres
Мы отправимся в лабиринты туннелей, расположенные на холмах Аргонского леса во Франции, которые использовались не только для нападения на врага, но и в качестве жилья и убежища.
04. Тайна Соммы / The Secret of the Somme
Мы рассмотрим события, произошедшие на Сомме в июле 1916 года, которые стали настоящим кошмаром для британской армии.
Внимание! Раздача ведётся путём добавления новых серий
Внимание! Раздача ведётся путём добавления новых серий; при каждом добавлении создётся новый торрент. Чтобы начать докачку новой серии, пользователям необходимо сделать следующее:
(1) остановить скачивание,
(2) удалить старый торрент у себя из клиента (старые серии удалять не надо),
(3) скачать новый торрент и запустить его у себя в клиенте вместо старого, при этом указать клиенту путь в старую папку куда и должно происходить скачивание новых серий.

Ваш клиент при этом должен произвести хеширование (проверку) старой папки (если не производит сам - помогите ему сделать это), и будет докачивать только те серии которых у вас ещё нет. Старые серии при этом не удаляются, а продолжают раздаваться!

Eсли вы уже удалили старые серии, то предотвратить повторную закачку старых серий можно, отжав галочку в соответсвующих местах при запуске нового торрента. По возможности, желательно не удалять старые серии как можно дольше чтобы релизёр не столько продолжал раздавать старые серии, а смог сконцентрироваться на новых.

Kaukazus - K.U.S (Kerni Ugyanazt Semmi) [2014, Rock, MP3]
2014-07-28 18:33
Kaukazus - K.U.S (Kerni Ugyanazt Semmi)
Формат: MP3, tracks, 320kbps
Год выпуска: 2014
Страна: Венгрия
Жанр: Rock
Продолжительность: 00:39:04
Описание:
01. Bazmeg
02. Bostoni Galamb
03. Ciprus
04. Fotocella
05. Riady
06. Hostess
07. Nok Es Fak
08. Papirsarkany
09. Elvallalat
10. Katonadal
11. Fak Es Nok

Сборник - Дискотека Русского Радио [2014, Поп, Диско, MP3]
2014-07-28 18:30
Сборник - Дискотека Русского Радио
Формат: MP3, tracks, 320kbps
Год выпуска: 2014
Страна: Россия
Жанр: Поп, Диско
Продолжительность: 05:06:38
Описание:

Треклист
01. Emin - Не ищи меня
02. С. Пьеха - Старая история
03. А. Варум - Где ты?
04. ВИА "Гра" (Новый состав) - Перемирие
05. Гр. "Reflex" - Потому что не было тебя
06. Гр. "25-45" - Моя любовь
07. Гр. "Подиум" - Упасть на небо
08. Artik & Asti - Очень очень
09. Н. Подольская - Интуиция
10. Ани Лорак - Оранжевые сны
11. Д. Билан - Улыбка ангела
12. Е. Польна - Молчание
13. Artik & Asti - До утра
14. Слава - Новая жизнь
15. Т. Буланова - Корабли
16. Саша Айвазов - От любви до любви (Миллионы дорог)
17. Нюша - Наедине
18. Рома Жуков - Диско-ночь
19. Гр. "Мираж" - Звезда
20. Гр. "Гости из будущего" - Лучшее в тебе (Live 2007)
21. Гр. "Комиссар" - Голубоглазая
22. Гр. "Планеты" - Всем привет из 90-х! (Alex Neo Remix)
23. С. Зверев - Алла (remix, arr. Dj Дан)
24. П. Смолова - Сердце-магнит
25. Натали - Открываю
26. Н. Гулькина - Белые птицы
27. Л. Агутин - Танцевали пары
28. Гр. "Фристайл" (вокал Н. Кирсо) - Капелька
29. Гр. "Унесенные ветром" - Какао
30. Гр. "Сценакардия" - Спасение
31. Саша Попов - Я сегодня только твой
32. Аркадиас - Диско (Prod. by EXCILIFE MP)
33. В. Быков - Девочка моя
34. А. Ломинский - Эхо любви
35. В. Казаченко - Сто тысяч Да
36. Витас - Любовь не опустит флаг
37. Гр. "Пропаганда" - Мелом
38. Гр. "Шпильки" - Маленькая штучка
39. Игорек - Удержаться не могу (Reggaeton version)
40. Натали - Свет звезды
41. С. Разина - Урфин Джюс
42. Гр. "Джинсовые мальчики" - Джинсовые мальчики
43. Детский хор "Великан" и гр. "Республика" - День рождения
44. Любаша и Grizz-Lee - Нажмем на кнопочки
45. Н. Королева - Хрустальное сердце Мальвины
46. О. Добрынин - До утра
47. Кай Метов - Вспомни меня
48. С. Дубровин - Ласковая моя
49. С. Пенкин - Позови
50. П. Смолова - Ты знал и не знал
51. Гр. "Размер Project" feat. Денис Мурзин - Слезы
52. Н. Гулькина и братья Шахунц - Се Ля Ви
53. Гр. "Гости из будущего" - Я не для тебя (Live 2007)
54. Гр. "Пропаганда" - Яй-я
55. Гр. "Подиум" - С днем рождения, милый
56. Ани Лорак - Тайна
57. Гр. "25-45" - Тайна
58. Vol'na - Над землей
59. Гр. "Шпильки" - Та, которая
60. Рома Жуков - Слушай
61. Гр. "Размер Project" feat.DJ Макс Короваев - Вспоминай меня
62. Гр. "Унесенные ветром" - Цветные сны
63. Д. Билан - Лови мои цветные сны (Dj Fisun Remix)
64. Аркадиас - Дай мне немного любви (Prod. by Excilife MP)
65. А. Варум - Настоящий ты
66. Л. Агутин - Бумажный змей
67. С. Пенкин - Счастье близко
68. Слава - Лас Вегас
69. А. Ломинский - Вспоминай
70. В. Быков - Малыш
71. Игорек - Я так тебя люблю (Dance Edit)
72. С. Филиппов - Вот оно счастье!
73. Т. Буланова - Таня, Таня
74. Н. Трубач и И. Саруханов - Счастливый билет
75. Гр. "Мираж" - Ты словно тень
76. Гр. "Планеты" - Первый поцелуй
77. Витас - Раз, два, три
78. Саша Попов - 911
79. Гр. "Комиссар" - Сказка о любви
80. Саша Айвазов - Луч заката

Roman Lob - Home [2014, Rock, MP3]
2014-07-28 18:24
Roman Lob - Home
Формат: MP3, tracks, 320kbps
Год выпуска: 2014
Страна: USA
Жанр: Rock
Продолжительность: 00:46:00
Описание:
01. All That Matters
02. A Minute Before
03. Where Are We Now
04. Drum Control
05. Rolling
06. Downhill
07. Underwater
08. California
09. Snapshot
10. If We Try
11. Wake Up
12. Changes Happen
13. Home

Miranda - Safari [2014, Pop, MP3]
2014-07-28 18:19
Miranda - Safari
Формат: MP3, tracks, 320kbps
Год выпуска: 2014
Страна: USA
Жанр: Pop
Продолжительность: 01:05:15
Описание:
01. Fantasmas
02. Extrano
03. Es Por El
04. Solo Lo Sabe La Luna
05. Miro la vida pasar (feat. Fangoria)
06. Se Mia
07. Buen Dia
08. Nadie Como Tu
09. Fotos
10. Para Olvidar Tu Amor
11. Fantasmas (Version Acustica)
12. Extrano (Version Acustica)
13. Es Por El (Version Acustica)
14. Solo Lo Sabe La Luna (Version Acustica)
15. Miro La Vida Pasar (Version Acustica)
16. Se Mia (Version Acustica)
17. Buen Dia (Version Acustica)
18. Nadie Como Tu (Version Acustica)
19. Fotos (Version Acustica)
20. Para Olvidar Tu Amor (Version Acustica)

Jonn Hart - Heart 2 Hart [Deluxe Edition] [2014, Rap, Hip-Hop, MP3]
2014-07-28 18:15
Jonn Hart - Heart 2 Hart [Deluxe Edition]
Формат: MP3, tracks, 320kbps
Год выпуска: 2014
Страна: USA
Жанр: Rap, Hip-Hop
Продолжительность: 01:22:10
Описание:
01. Get It Girl (feat. Problem)
02. Havin My Baby (feat. Clyde Carson)
03. Beast Mode
04. Headboard Swag (feat. RawSmoov)
05. Throw It Back
06. She A Pro (feat. Geo)
07. Blast Off
08. Alone
09. Bad
10. Party (feat. L!Z)
11. Who Booty (Remix) (feat. E-40, Clyde Carson)
12. Shout Out
13. That's How We Feel (feat. Glasses Malone)
14. Party
15. Ktys
16. No Games
17. FUTC (feat. Milla)
18. Excuse My Liquor (feat. Kool John)
19. Poh
20. Right Now
21. So Good
22. Till The Morning (feat. Big Zo)
23. Bands On Bands (Remix) (feat. Yo Gotti)

+100500 на Перец ТВ [Новый сезон] (Эфир от 28.07.2014) (Петр Сивак) [2014, Юмор, SATRip]
2014-07-28 18:13
+100500 на Перец ТВ.[Новый сезон] (Эфир от 28.07.2014)
Перевод: Не требуется, cубтитры: отсутствуют
Формат: SATRip, AVI Xvid, MP3
Страна: Россия
Режиссер: Петр Сивак
Жанр: Юмор
Продолжительность: ~00:25:00
Год выпуска: 2014
В ролях: Максим Голополосов
Описание: В шоу «+100500» Максим Голополосов делает видеообзоры на смешные видеоролики, найденные в Интернете. Комический эффект достигается при помощи склейки фрагментов видеоклипа с комментариями ведущего. Для каждого выпуска подбирается четыре видеоролика. Исключение составили первые десять эпизодов, в которых было по три ролика, эпизоды 61 и 64, в которых было пять роликов, а также эпизоды с 94 по 102, в которых было только два ролика в связи с проведением съёмок в Лондоне и увеличением количества выпусков за неделю. Как правило, каждый эпизод именуется по названию, сюжету или ключевой фразе из последнего ролика (исключение составляет только «Очень новогодний эпизод»). Съёмки производятся на фоне леопардового покрывала (пользователи интернета зачастую называют его ковром), которым Максим раньше накрывал диван. Над проектом работает четыре человека


Видео: 720x400 (1.80:1), 25 fps, XviD build 73 ~1340 kbps avg, 0.19 bit/pixel
Аудио: 48 kHz, MPEG Layer 3, 1 ch, ~128.00 kbps avg

Кочетков Михаил - Несмело, товарищи, в ногу [1999, Авторская песня, Шансон, MP3]
2014-07-28 17:55
Кочетков Михаил - Несмело, товарищи, в ногу
Формат: MP3, tracks, 320kbps
Год выпуска: 1999
Страна: Россия
Жанр: Авторская песня, Шансон
Продолжительность: 00:46:57

Описание:

01 - Печальный романс
02 - Баллада трезвости
03 - Посвящение В. Туриянскому
04 - Душевная песня уличного фонаря (Ю. Кукину)
05 - Романс (Е. Казанцевой)
06 - Весна
07 - Пришла весна-налетчица
08 - Полковник (А. Смогулу)
09 - Портрет главного героя
10 - Ночная хроника
11 - Двойной автопортрет
12 - Шарманщик
13 - Как изгнанник на чужих берегах
14 - Жестокий романс
15 - Гусарская песня
16 - Портрет Героя в ресторане
17 - Одесская с Петровичем
18 - Посвящение И. Иртеньеву
19 - Портрет попугая
20 - Отъездная цыганочка
21 - Папуас (А. Никишину)
22 - Невольно чувствуешь вину
23 - Норвежская ресторанная мистерия (А. Галичу)
24 - Марш (А. Анпилову)

Только не с моей женой, не смей! / Not with My Wife, You Don't! (Норман Панама) [1966, комедия, DVDRip] VO
2014-07-28 17:40
Только не с моей женой, не смей! / Not with My Wife, You Don't!

Перевод: Любительский (одноголосый), субтитры: отсутствуют
Формат: DVDRip, AVI, XviD, MP3
Страна: США
Режиссер: Норман Панама
Жанр: комедия
Продолжительность: 01:58:55
Год выпуска: 1966
В ролях: Тони Кертис, Вирна Лизи, Джордж К. Скотт, Кэррол О’Коннор, Ричард Истхэм, Эдди Райдер, Джордж Тайн, Энн Доран, Донна Дэнтон, Натали Кор
Описание:
Том Фэррис (Тони Кертис), бывший военный лётчик, женат на красавице-итальянке Джульетте (Вирна Лизи). Джульетта считает, что муж уделяет больше внимания своей работе, чем ей. Однажды Том встречает своего давнего друга и однополчанина Мартина, с которым когда-то соперничал в борьбе за руку Джульетты. И вот тут то начинаются вполне закономерные неожиданности.



Видео: 704x368 (1.91:1), 25 fps, XviD build 47 ~1439 kbps avg, 0.22 bit/pixel
Аудио: 48 kHz, MPEG Layer 3, 2 ch, ~128 kbps avg


Золотой глобус, 1967
Номинации:
Лучший фильм (комедия или мюзикл)


Остроги:Война зомби (Шакилов Александр) [2014, Постапокалиптика, аудиокнига, MP3, 128kbps, BIGBAG (ЛИ)]
2014-07-28 17:35
Остроги:Война зомби




Формат: аудиокнига, MP3, 128kbps
Автор: Шакилов Александр
Год выпуска: 2014
Жанр: Постапокалиптика
Издательство: Аудиокнига своими руками
Исполнитель: BIGBAG (ЛИ)
Продолжительность: 08:46:32


Описание: Человечеству грозит тотальное уничтожение. Остроги охвачены огнем. Чтобы предотвратить геноцид, Данила Сташев и диверсанты из отряда «Варяги» прорываются с боем из Питера на Кольский полуостров, где хранится секретное оружие, способное изменить ход войны. Каждый шаг по опасным Территориям стоит пролитой крови и загубленных жизней, ведь на пути «варягов» встает могущественное Братство зомби.
Сумеют ли Дан и его друзья дойти до конца? Верно ли, что они — единственная наша надежда?..



Чрезвычайное происшествие (Эфир от 25.07.2014) (ТК "НТВ") [2014, телепередача, информация, SATRip]
2014-07-28 17:30
Чрезвычайное происшествие (Эфир от 25.07.2014)
Перевод: Не требуется, cубтитры: отсутствуют
Формат: SATRip, AVI, XviD, MP3
Страна: Россия
Режиссер: ТК "НТВ"
Жанр: телепередача, информация
Продолжительность: 00:37:57
Год выпуска: 2014

Описание: Жанр передачи можно назвать "журналистикой инцидента". Его особенности в том, что программа, по сути, представляет собой не просто криминальную сводку или уголовную хронику, а показывает реальную жизнь без прекрас. Когда на НТВ возникла идея итоговой программы о происшествиях, работать пришлось в авральном режиме. Окончательное решение созрело за две недели до первого выпуска, когда в газеты уже была отдана программа телепередач с новой строкой - "ЧП. Обзор за неделю". Команда собрана из профессионалов жанра, людей, которые знают, что нужно зрителю, могут добыть это и умеют эффектно подать материал. Эта команда и смогла создать качественный продукт, основой которого стали репортажи с реальным, не постановочным видео. Неподдельные эмоции, наэлектризованная атмосфера критических ситуаций, невероятные, но абсолютно достоверные факты, - все это ждет вас на канале НТВ!

Видео: 720x448 (1.61:1), 25 fps, XviD build 50 ~1499 kbps avg, 0.19 bit/pixel
Аудио: 48 kHz, MPEG Layer 3, 2 ch, ~128.00 kbps avg