RSS-канал «tfile.co»

Доступ к архиву новостей RSS-канала возможен только после подписки.

Как подписчик, вы получите в своё распоряжение бесплатный веб-агрегатор новостей доступный с любого компьютера в котором сможете просматривать и группировать каналы на свой вкус. А, так же, указывать какие из каналов вы захотите читать на вебе, а какие получать по электронной почте.

   

Подписаться на другой RSS-канал, зная только его адрес или адрес сайта.

Код формы подписки на этот канал для вашего сайта:

Форма для любого другого канала

Последние новости

Grond - Worship The Kraken [2016, Death Metal, MP3]
2016-06-25 07:01
error getting text

Волейбол / Женщины / Гран-при 2016 / Предварительный раунд / Третий этап в Киото (Япония) / Группа 1 / 4-й тур / Сербия - Россия / Матч Игра HD [24.06.2016, Волейбол, HDTVRip 720p, RU]
2016-06-25 06:32
error getting text

Волейбол / Мужчины / Мировая лига 2016 / Группа 1 / 4-й тур / Россия - Франция / Матч Игра HD [24.06.2016, Волейбол, HDTVRip 720p, RU]
2016-06-25 06:14
Волейбол / Мужчины / Мировая лига 2016 / Группа 1 / 4-й тур / Россия - Франция / Матч Игра HD


Формат: HDTVRip 720p, MKV, H.264, AC3
Страна: Польша
Участники: Россия - Франция
Вид спорта: Волейбол
Продолжительность: 01:45:01
Дата эфира: 24.06.2016

Перевод: Русский, cубтитры: отсутствуют
Язык комментариев: Русский
Комментаторы: Таня Грачева и Владимир Стецко

Описание: 24 июня 2016, пятница. 18:10 МСК
Стадион: Атлас Арена (Лодзь, Польша), вместимость: 13805
Предварительный этап. Группа 1. Четвертый тур. Россия - Франция


Видео: MPEG4 Video (H264) 1280x720 (16:9), 50fps, 4000Kbps
Аудио: Dolby AC3 48000Hz stereo 192kbps

Автор рипа: Багга



VA - Spacesynth 4Ever Vol.3 (Wonderland) [2016, Spacesynth, Spacedisco, MP3]
2016-06-25 01:49
VA - Spacesynth 4Ever Vol.3 (Wonderland)
Формат: MP3, tracks, 320kbps
Год выпуска: 2016
Страна: All World
Жанр: Spacesynth, Spacedisco
Продолжительность: 01:35:16
Описание:

Треклист


01. Angelo Taylor - I Sleep and I see Dreams [02:53]
02. Fegolhuzz - Yet another Space Travel [03:38]
03. Rigelz - Space Police [04:36]
04. Marius M.21 - Radiation Alert [09:19]
05. Aphelion - City of Sand [04:50]
06. Pavel Panchenko - Planet of Vision [03:39]
07. Bellatrix - Wonderland 16 [04:40]
08. Sky van Dreamer - Alien Attack [05:45]
09. Spiral Hands On Dr Awesome - 12th Warrior (Ext by Marc Eliow) [08:57]
10. Split Mirrors - The Right Time (Digimax Remix) [05:21]
11. Mr.Ed - E-Space (Remix) [03:32]
12. Synthesis - Over The Clouds (Ext by Marc Eliow) [11:05]
13. Angelo Taylor - Solar Wind [04:24]
14. Ice 771 - Tourbillon [03:45]
15. Pagumusic - Interplanetary Expres [06:30]
16. Zona X - Humanoid Dance Master [03:47]
17. Scordar - Electriverse [04:20]
18. Synthetic Universe - Cosmic Celebration [04:23]

Класс убийц ТВ-2 / Ansatsu Kyoushitsu TV-2 (Киси Сэйдзи) [TV] [21 из 25] [RAW] [RUS] [2016, приключения, фэнтези, HDTVRip] [720p]
2016-06-25 01:25
Класс убийц ТВ-2 / Ansatsu Kyoushitsu TV-2

Перевод: Любительский (двухголосый)
Cубтитры: отсутствуют
Хардсаб: отсутствует

Формат: HDTVRip, MKV, H.264, AAC
Страна: Япония
Режиссер: Киси Сэйдзи
Жанр: комедия, школа
Продолжительность: ТВ (>25эп.) 25 мин.
Год выпуска: 2016
Озвучивание: Joyni ! & Рапунцель-тян

Описание: Прямое продолжение первого сезона. В книгах написано «чти учителя своего», но скажите честно: разве вам в школе не попадались педагоги, которых хотелось чем-то от души приголубить… с летальным исходом? Вы-то наверняка удержались, а вот ребятам из 9-го «Е» японской школы «Дубовые холмы» сдерживаться противопоказано. Последний в параллели класс хулиганов, лентяев и чудиков внезапно получает в свои руки судьбу мира, а задача у него одна – любым способом и с чьей угодно помощью убить собственного классного руководителя в течение учебного года!

Зачем так резко? Да затем, что Коро-сэнсэй, вообще-то – тыквоголовый пришелец, обожающий уничтожать планеты. С Луной маньяк справился на раз, а Земле дал отсрочку, предложив сыграть в описанную выше игру. Учитель он, кстати, хороший: спокоен, позитивен, всегда поможет, объяснит, разберет ошибки, в том числе и в науке устранения ближнего и дальнего. Только до самого не доберешься – добрый наставник быстрее пуль, а любого супермена скрутит щупальцами в бараний рог. Одна надежда на японскую культуру – может, удастся на сэппуку уговорить?



Видео: x264; 1280х720; 23.976fps; ~2219 kbps
Аудио: Rus - AAC; 44.1 KHz; 2.0ch; 151 Kbps

MediaInfo
General
Формат : Matroska
Версия формата : Version 4 / Version 2
Размер файла : 390 MiB
Продолжительность : 22mn 59s
Общий поток : 2 372 Kbps
Дата кодирования : UTC 2016-06-03 14:23:44
Программа кодирования : mkvmerge v9.1.0 ('Little Earthquakes') 32bit
Библиотека кодирования : libebml v1.3.3 + libmatroska v1.4.4

Video
Идентификатор : 1
Формат : AVC
Формат/Информация : Advanced Video Codec
Профиль формата : High@L4.1
Параметр CABAC формата : Yes
Параметр ReFrames формата : 4 frames
Идентификатор кодека : V_MPEG4/ISO/AVC
Продолжительность : 22mn 59s
Битрейт : 2 219 Kbps
Ширина : 1 280 pixels
Высота : 720 pixels
Соотношение сторон : 16:9
Режим частоты кадров : Constant
Частота кадров : 23.976 (24000/1001) fps
Цветовое пространство : YUV
Субдискретизация насыщенности : 4:2:0
Битовая глубина : 8 bits
Тип развёртки : Progressive
Бит/(Пиксели*Кадры) : 0.100
Размер потока : 365 MiB (94%)
Библиотека кодирования : x264 core 129 r2245+729M 1a52e03
Настройки программы : cabac=1 / ref=4 / deblock=1:1:-1 / analyse=0x3:0x113 / me=umh / subme=9 / psy=1 / fade_compensate=0.00 / psy_rd=1.00:0.00 / mixed_ref=1 / me_range=24 / chroma_me=1 / trellis=2 / 8x8dct=1 / cqm=0 / deadzone=21,11 / fast_pskip=1 / chroma_qp_offset=-2 / threads=8 / lookahead_threads=1 / sliced_threads=0 / nr=0 / decimate=1 / interlaced=0 / bluray_compat=0 / constrained_intra=0 / fgo=0 / bframes=9 / b_pyramid=2 / b_adapt=2 / b_bias=0 / direct=1 / weightb=1 / open_gop=0 / weightp=2 / keyint=240 / keyint_min=24 / scenecut=40 / intra_refresh=0 / rc=crf / mbtree=0 / crf=18.5 / qcomp=0.72 / qpmin=0 / qpmax=69 / qpstep=4 / ip_ratio=1.40 / pb_ratio=1.30 / aq=1:0.85
Default : Yes
Forced : No
Цветовой диапазон : Limited
Основные цвета : BT.709
Характеристики трансфера : BT.709
Коэффициенты матрицы : BT.709

Audio
Идентификатор : 2
Формат : AAC
Формат/Информация : Advanced Audio Codec
Профиль формата : LC
Идентификатор кодека : A_AAC
Продолжительность : 22mn 59s
Битрейт : 151 Kbps
Каналы : 2 channels
Расположение каналов : Front: L R
Частота : 44.1 KHz
Частота кадров : 43.066 fps (1024 spf)
Метод сжатия : Lossy
Размер потока : 24.9 MiB (6%)
Заголовок : JWA Project
Язык : Russian
Default : Yes
Forced : No

Заявки на прием в РГ Спорт оставляются здесь:
2016-06-25 01:08
Заявки на вступление в Релиз Группу - РГ Спорт пишутся по данной форме в этой теме:

  • Имя, возраст.
  • Сколько времени можете поддерживать раздачу.
  • Среднее количество релизов, которые вы можете выложить за месяц или среднее количество раздач добавлением, которое Вы можете вести одновременно.
  • Прочая информация, о которой Вы хотели бы сообщить.

Правила приема в РГ Спорт
2016-06-25 01:01
error getting text

Правила приема в РГ Спорт
2016-06-25 01:01
Правила нахождения в группе:

  • Каждый член группы перед выкладыванием релиза должен проверить раздаваемый материал на работоспособность, а также то, что файл не битый, не содержит вирусов, не нарушает правил сайта.
  • Каждый член группы в месяц должен ставить не менее 5 раздач в месяц.
  • Каждый член группы должен оперативно, в течение максимум суток, обновлять все ведомые им раздачи.
  • Каждый член группы должен довести до финала сезона все взятые им раздачи добавлением.
  • Релизер должен довести свою раздачу до пяти сидеров прежде чем уйти с неё.
    В случае несоблюдения членом РГ одного или нескольких правил из вышеперечисленных, и отсутствия при этом уважительной причины, будет вынесен на обсуждение вопрос об исключении его из группы.


  • В релиз группу "Спорт" принимаются только те раздающие, которые:

    - имеют в наличии не менее 50 правильно оформленных раздач. (или на усмотрение Администрации группы)
    - после заявки сделали не менее 5-10 релизов в тему и оформляют раздачи без ошибок.
    - умеют конвертировать и работать с программами конвертации.
    - имеют желание и возможность делать релизы.
    - участник релиз-группы "Спорт" может быть участником других релиз-групп.

    Члену РГ Спорт дается соответственная лычка в профиль:
    ЛЫЧКА:


    На авторские релизы ставится
    кнопка:

    Falskur Fugl - Танцы На Костях [2016, Post-Black Metal, MP3]
    2016-06-25 00:46
    error getting text

    Falskur Fugl - Танцы На Костях [2016, Post-Black Metal, MP3]
    2016-06-25 00:46
    Falskur Fugl - Танцы На Костях
    Формат: MP3, tracks, 320kbps
    Год выпуска: 2016
    Страна: Россия
    Жанр: Post-Black Metal
    Продолжительность: 00:29:59
    Описание:

    1. Утро (Intro)
    2. Утрата
    3. Då, nu - Jag och Du (Kall cover)
    4. О Ней
    5. Стужа
    6. Ярость
    7. Угасание (Outro)

    Breached [v.1.0] [RePack by Other s] [2016, Adventure, 3D, 1st Person]
    2016-06-25 00:02
    Breached [v.1.0] [RePack by Other s]
    Год выпуска: 2016
    Жанр: Adventure, 3D, 1st Person
    Разработчик: Drama Drifters
    Издательство: Nkidu Games Inc.
    Сайт разработчика: www.breached-game.com/
    Язык интерфейса: Русский, Английский, Французский, Немецкий[br]Язык озвучки: отсутствует
    Платформа: PC
    Системные требования: [br]Операционная система: Windows Vista (64-бит) и выше
    Процессор: 2 ГГц и лучше
    Видеокарта: от 1 Гб
    DirectX: Версии 10
    Оперативная память: 4 Гб
    Место на жестком диске: 5 Гб
    Описание: Breached — это история человека в руинах будущего. Научно-фантастическое приключение с упором на атмосферу и повествование. Вы присоединяетесь к истории после выхода главного героя из гибернации. Он знает, что происходит.
    Вы — нет.

    Пишите дневники вместе с героем. Изучайте пустыню с помощью дронов. Восстановите убежище и узнайте правду.
    У вас есть 8 дней.

    Установка
    1. Запустить exe файл
    2. Следовать инструкции установщика
    3. Установить
    4. Играть
    Особенности релиза
    Ничего не вырезано
    Ничего не перекодировано
    Поддержка языков интерфейса: Русский, Английский, Французский, Немецкий
    Смена локализации осуществляется из корневой папки игры посредством запуска файла Language Selector
    Путь сохранений игры: %SystemDrive%Users%USERNAME%AppDataRoamingSteamCODEX460640
    Версия игры: 1.0
    Время установки: -1,5 минуты
    В установщике звучит Kim Waters
    Релиз от Other s

    Сборник - Любимая музыка для твоей тачки. Русский Выпуск [2016, Поп, Танцевальный, MP3]
    2016-06-24 23:59
    Сборник - Любимая музыка для твоей тачки. Русский Выпуск
    Формат: MP3, tracks, 256kbps
    Год выпуска: 2016
    Страна: Россия
    Жанр: Поп, Танцевальный
    Продолжительность: 06:10:44
    Описание:

    Треклист
    001. Emin - Рядом Проснуться
    002. Fargo - Катя Любит Деньги
    003. Наталья Матроскина - Там Внутри
    004. Nastika - Че Качок
    005. Milen - Тебе
    006. Винтаж Feat. Dj Smash - Город Где Сбываются Мечты
    007. Иван Гаранин - Я Тебя Люблю
    008. Archi-M Feat. Mx - Паранойя
    009. Аркадиас - Сон Где Мы Вдвоем
    010. Юля Шатунова - Зимние Розы
    011. Сергей Сумачаков - Похожи
    012. Мартин Дин - Падший Ангел
    013. Анита Цой - Без Вещей
    014. Даша Суворова - Разноцветные Лосины
    015. Mona (Ex. Монокини) - Слушай Сердце
    016. Медойти - Поймав Мелодию
    017. Hann - Я Тебя Приму Любой
    018. Сергей Грейс - Любить Тебя Любить
    019. Руслан Богачев - 20 Выстрелов Текилы
    020. Ольга Комарова - Достаю До Неба
    021. Даша Столбова - Баллада
    022. Дима Билан - Неделимые
    023. Бурито & Елка - Ты Знаешь
    024. Даниил Якубович - Люби Любя
    025. Vinoград - Небо Над Нами
    026. Потап & Настя Каменских Vs Любэ - Дворовые Друзья
    027. Karen Туз Feat. Gaya Khan - Сеньорита
    028. Валентина Бирюкова - Будь Счастлив
    029. Юлия Оксанич - 7 Ночей
    030. Братья Жуковы - Засыпай
    031. Влад Чижиков - Она
    032. 5sta Family - Так Бывает
    033. Olisha - Ой Мама
    034. Dido & Dj Mrid - Без Тебя
    035. Светлана Лобода - К Черту Любовь
    036. Наталия Власова - Розовая Нежность
    037. Ужезима - Магнолия
    038. Solterov - Что Же Мы С Тобой Наделали
    039. Виктория Клинкова - Нет Нет
    040. Alekseev - Пьяное Солнце
    041. Ханчик - На Краю Земли
    042. Ксения Аксенова - Белые Крылья
    043. Трио S Klass - Леди Вамп
    044. Moyyo - Имя Moyyo
    045. Максим Бурматов - Дорога Не Домой
    046. Homie - Птица Рай
    047. Анна Шульгина - Другая Я
    048. Нюша & Арсений Бородин - Выбирать Чудо
    049. Costero - Чертовски Роскошная Девушка
    050. Нашеvremя - Доброе Утро
    051. Мила Рогоза - Сгорай
    052. Меджикул - Только Ты
    053. Женя Юдина Feat. Alex Curly - Не Стесняйся
    054. Яков Самодуров - Счастье
    055. Heartskin - Пароль 03
    056. Katrin Mokko - Ты Куда
    057. Артур Тринев - Маки
    058. Винтаж - Дыши
    059. Ольга Майорова - Мир Сошел С Ума
    060. Алекс Юлдашев - Сердцебиение
    061. Саша Алмазова & Non Cadenza - Неинтересно
    062. Марсель - Здравствуй Мам
    063. Danya - Никому & Никогда
    064. Бьянка - Любимый Дождь
    065. U3u - Нравится
    066. Ольга Lee - Que Sera Sera
    067. Bahh Tee - Как Ты Посмела
    068. Бьянка - Крыша
    069. Helena Shadia - Твоя Девочка
    070. Serpo & Dj Boor Feat. Женя Юдина - Небо Это Ты
    071. Ксения Бейкун - Вранье
    072. Лизабэт Feat. День Ангела - За Стеной
    073. Анжелика Пушнова - Всей Моей Нежности
    074. Влад Ульянич - Невыносимая
    075. Неона - Твой Нрав
    076. Аркадиас - Здравствуй Любовь Моя
    077. Kristina Si - Не Обижай Меня
    078. Melkiysl Feat. Mr. Ven - Тук-Тук
    079. Светлана Лобода - А Может К Черту Любовь
    080. Дмитрий Колдун - Почему
    081. Алла Костина Feat. Total - Не Я
    082. Элемент - Музыка
    083. Zip92 Pres. Диана Зварич - Слишком Привыкла
    084. Абдулкарим - Волна
    085. Alex Kafer - Все Для Тебя
    086. Анита Цой - Расскажи
    087. Игорь Щедров & Сергей Мироненко - Твой Плен
    088. Ольга Комарова - Гармония
    089. Юлия Сандерс - Адреналин
    090. Алек Старцев - Птица Небесная
    091. Аида Николайчук - Inner Power
    092. Тори - Давай Играть
    093. Lx24 - Любовь
    094. Макsим - Золотыми Рыбками
    095. Кай Метов & Джинсовые Мальчики - Мама Я Хочу Быть Пионером
    096. Денис Филимонов - Навсегда
    097. Дима Карташов - Песня О Них
    098. Egine (Иджин) - Любовь-Ошибка
    099. Алла Канти - Певица & Луна
    100. Ксения Луговая - Фонари

    VA - Berlin Summer Vol 1 - Underground Deep House Sounds [2016, House, Club House, Deep House, MP3]
    2016-06-24 22:31
    VA - Berlin Summer Vol 1 - Underground Deep House Sounds
    Формат: MP3, (tracks + image), 320kbps
    Год выпуска: 2016
    Страна: All World
    Жанр: House, Club House, Deep House
    Продолжительность: 07:38:09
    Описание:

    Tracklist
    01. Various Artists - Berlin Summer Vol. 1 - Underground Deep House Sounds DJ Mix, Pt. 1 [01:08:16]
    02. Various Artists - Berlin Summer Vol. 1 - Underground Deep House Sounds DJ Mix, Pt. 2 [01:05:31]
    03. Various Artists - Berlin Summer Vol. 1 - Underground Deep House Sounds DJ Mix, Pt. 3 [01:18:28]

    04. Robin Schulz feat. Akon - Heatwave [03:08]
    05. Alok & Nytron - Addiction (Original Mix) [05:18]
    06. The Deepshakerz - Big Heart (Original Mix) [06:19]
    07. Chad Tyson & Kyle Watson - Crank (Original Mix) [05:45]
    08. Sons Of Maria - Fuchur (Original Mix) [05:36]
    09. Tinush - Who Are You Mister (Original Mix) [05:06]
    10. Seb LeBrox - I Know Angels (Original Mix) [04:50]
    11. Krokodile Kr##gel## - Fog in the Moonlight (Original Mix) [05:02]
    12. Raumakustik - Panther (Format:B Remix) [06:29]
    13. Mark Bale & Ton Don - Bring It Back (Original Mix) [03:32]
    14. Fort Arkansas - World in Ur Eyes (Original Mix) [06:15]
    15. Luca Debonaire - The Weekend Has Landed (Original Mix) [05:46]
    16. Djey Piko - Fever (Original Mix) [05:13]
    17. Tobi Kramer - Consuela (Original Mix) [06:44]
    18. Calippo - Astonia (Original Mix) [05:20]
    19. Tim Gerlach - Got to Do (Original Mix) [03:32]
    20. Sumak - The Way You Move (Original Mix) [05:20]
    21. Vol2Cat & Oni Sky - You (Krokodile Kr##gel Remix) [05:10]
    22. Falko Niestolik & Oni Sky - Together (Funkin Matt Remix) [03:52]
    23. Kokiri - Turn Back Time (Jason Burns Remix) [05:05]
    24. Roger Sanchez feat. Stealth - Remember Me (Luca Schreiner Remix) [04:32]
    25. HUGEL feat. Jimmy Hennessy - Coming Home (A2A Remix) [05:38]
    26. Set Mo & Deutsch Duke - White Dress (Extended Mix) [05:26]
    27. Alex Schulz - In the Morning Light (Hugel Remix) [04:58]
    28. Nico Pusch - Now I Know (Original Mix) [06:02]
    29. Kakkeplay - I 1t U (Original Mix) [05:55]
    30. Marcello Morales - Don't Let Go (Original Mix) [06:24]
    31. Aniss Hynoise & Taher.A - Yaatra (Original Mix) [06:13]
    32. P.A.C.O feat. Return Of The Jaded - Nights Watch (Original Mix) [06:01]
    33. Paji - Venom (Original Mix) [06:50]
    34. In.Deed - Rocknroll (Original Mix) [06:35]
    35. Moonwalk - Echoes (Original Mix) [06:54]
    36. Pax & Azure - Wolves (Original Mix) [06:32]
    37. AFFKT & Thomas Gandey - Invisible Man (Martin Eyerer Remix) [07:17]
    38. P.A.C.O. - The Wall (Original Mix) [05:52]
    39. Moonwalk - Eclipse (Original Mix) [06:21]
    40. Christian Hornbostel - Mental Species (Original Mix) [07:08]
    41. Vangelis Kostoxenakis - Last Minute (Original Mix) [06:47]
    42. Martin Eyerer - The Rolls (Funk D'void Remix) [06:07]
    43. Tube & Berger & Ante Perry - In the Shadows (Joeski Remix) [06:36]
    44. DeMarzo - Another Day (Original Mix) [06:33]
    45. Peer Kusiv - Storch (Original Mix) [06:30]
    46. Marcimo - Time (Original Mix) [05:21]

    Эш против Зловещих мертвецов, 1 сезон 1-10 серии из 10/ Ash vs Evil Dead [Amedia | Goblin | Кубик в кубе | AlexFilm | NewStudio | Jaskier] (Майкл Херст) [2015, ужасы, боевик, комедия, HDTV 1080p, 4P+P2+P1, SUB]
    2016-06-24 20:36
    Эш против Зловещих мертвецов / Ash vs Evil Dead

    Перевод #1: Профессиональный (многоголосый закадровый) | Amedia |
    Перевод #2: Авторский (одноголосый закадровый) | Дмитрий "Goblin" Пучков |
    Перевод #3: Профессиональный (двухголосый закадровый) | Кубик в кубе |
    Перевод #4: Профессиональный (многоголосый закадровый) | AlexFilm |
    Перевод #5: Профессиональный (многоголосый закадровый) | NewStudio |
    Перевод #6: Профессиональный (многоголосый закадровый) | Jaskier |
    Субтитры: Русские (Амедиа), английские

    Формат: HDTV 1080p, MKV, H.264, AC3
    Страна: США
    Режиссер: Майкл Херст, Рик Джейкобсон, Сэм Рэйми
    Жанр: ужасы, боевик, комедия
    Всего серий: 10
    Продолжительность: 10 x ~ 00:30:00
    Год выпуска: 2015

    В ролях: Брюс Кэмпбелл, Джилл Мари Джонс, Дэна ДеЛоренцо, Люси Лоулесс, Рэй Сантьяго, Мими Роджерс, Хемки Мадера, Фил Пелетон, Дэмиен Гарви

    Описание: 30 лет он избегал ответственности за свои поступки, упорно старался не взрослеть и не особо стремился вновь встретиться с ожившими мертвецами. Но, совершив ошибку, Эш узнает, что проказа кандарийских демонов угрожает распространиться по всей планете и ему снова приходится вступить в схватку с полчищами мертвой нечисти. Реки крови, горы трупов и, конечно, искрометный черный юмор – отличный подарок всем любителям ужасов, комедий, крови, треша и угара.



    Видео: 1920x1080 (1.77:1), 25 fps, AVC (х264), High@L4.1 ~5000 Kbps avg, 0.096 bit/pixel

    Аудио #1 Rus: 48 kHz, AC3 Dolby Digital, 3/2 (L,C,R,l,r) + LFE ch, ~384.00 kbps avg [Amedia]
    Аудио #2 Rus: 48 kHz, AC3 Dolby Digital, 2/0 (L,R) ch ~192.00 kbps avg [Дмитрий "Goblin" Пучков]
    Аудио #3 Rus: 48 kHz, AC3 Dolby Digital, 2/0 (L,R) ch ~192.00 kbps avg [Кубик в кубе]| ненормативная лексика
    Аудио #4 Rus: 48 kHz, AC3 Dolby Digital, 2/0 (L,R) ch ~192.00 kbps avg [AlexFilm]| ненормативная лексика
    Аудио #5 Rus: 48 kHz, AC3 Dolby Digital, 2/0 (L,R) ch ~192.00 kbps avg [NewStudio]| ненормативная лексика
    Аудио #6 Rus: 48 kHz, AC3 Dolby Digital, 2/0 (L,R) ch ~192.00 kbps avg [Jaskier]| ненормативная лексика
    Аудио #7 Eng: 48 kHz, AC3 Dolby Digital, 3/2 (L,C,R,l,r) + LFE ch, ~384.00 kbps avg [Original]

    MediaInfo
    Общее
    Уникальный идентификатор : 242304935610779333606911685450191591898 (0xB64A3BAD86EA60CC833310887D67D9DA)
    Полное имя : X:\ATorrent\Ash vs Evil Dead (Season 01) 1080p\Ash.vs.Evil.Dead.[S01E01].1080p.6xRus.Eng.Sub.[qqss44].mkv
    Формат : Matroska
    Версия формата : Version 2
    Размер файла : 1,84 Гбайт
    Продолжительность : 39 м.
    Общий поток : 6726 Кбит/сек
    Название фильма : Ash vs Evil Dead 1x01
    Дата кодирования : UTC 2016-01-06 09:25:17
    Программа кодирования : mkvmerge v7.9.0 ('Birds') 64bit
    Библиотека кодирования : libebml v1.3.1 + libmatroska v1.4.2
    DURATION : 00:39:08.512000000
    NUMBER_OF_FRAMES : 73391
    NUMBER_OF_BYTES : 56364288
    _STATISTICS_WRITING_APP : mkvmerge v7.9.0 ('Birds') 64bit
    _STATISTICS_WRITING_DATE_UTC : 2016-01-06 09:25:17
    _STATISTICS_TAGS : BPS DURATION NUMBER_OF_FRAMES NUMBER_OF_BYTES

    Видео
    Идентификатор : 1
    Формат : AVC
    Формат/Информация : Advanced Video Codec
    Профиль формата : High@L4.1
    Параметр CABAC формата : Да
    Параметр ReFrames формата : 4 кадра
    Идентификатор кодека : V_MPEG4/ISO/AVC
    Продолжительность : 39 м.
    Битрейт : 5000 Кбит/сек
    Ширина : 1920 пикселей
    Высота : 1080 пикселей
    Соотношение сторон : 16:9
    Режим частоты кадров : Постоянный
    Частота кадров : 25,000 кадров/сек
    Цветовое пространство : YUV
    Субдискретизация насыщенности : 4:2:0
    Битовая глубина : 8 бит
    Тип развёртки : Прогрессивная
    Бит/(Пиксели*Кадры) : 0.096
    Размер потока : 1,33 Гбайт (72%)
    Заголовок : Ash vs Evil Dead 1x01
    Библиотека кодирования : x264 core 142 r2491 24e4fed
    Настройки программы : cabac=1 / ref=3 / deblock=1:1:-1 / analyse=0x3:0x133 / me=umh / subme=9 / psy=1 / psy_rd=1.00:0.00 / mixed_ref=1 / me_range=48 / chroma_me=1 / trellis=2 / 8x8dct=1 / cqm=0 / deadzone=21,11 / fast_pskip=0 / chroma_qp_offset=-2 / threads=48 / lookahead_threads=5 / sliced_threads=0 / slices=4 / nr=0 / decimate=1 / interlaced=0 / bluray_compat=0 / constrained_intra=0 / bframes=6 / b_pyramid=2 / b_adapt=2 / b_bias=0 / direct=3 / weightb=1 / open_gop=0 / weightp=2 / keyint=250 / keyint_min=22 / scenecut=40 / intra_refresh=0 / rc_lookahead=50 / rc=2pass / mbtree=1 / bitrate=5000 / ratetol=1.0 / qcomp=0.70 / qpmin=10 / qpmax=49 / qpstep=4 / cplxblur=20.0 / qblur=0.5 / vbv_maxrate=9000 / vbv_bufsize=2500 / nal_hrd=none / filler=0 / ip_ratio=1.40 / aq=1:1.00
    Язык : English
    Default : Да
    Forced : Нет

    Аудио #1
    Идентификатор : 2
    Формат : AC-3
    Формат/Информация : Audio Coding 3
    Расширение режима : CM (complete main)
    Параметр Endianness формата : Big
    Идентификатор кодека : A_AC3
    Продолжительность : 39 м.
    Вид битрейта : Постоянный
    Битрейт : 384 Кбит/сек
    Каналы : 6 каналов
    Расположение каналов : Front: L C R, Side: L R, LFE
    Частота : 48,0 КГц
    Метод сжатия : С потерями
    Размер потока : 108 Мбайт (6%)
    Заголовок : Amedia
    Язык : Russian
    Default : Да
    Forced : Нет

    Аудио #2
    Идентификатор : 3
    Формат : AC-3
    Формат/Информация : Audio Coding 3
    Расширение режима : CM (complete main)
    Параметр Endianness формата : Big
    Идентификатор кодека : A_AC3
    Продолжительность : 39 м.
    Вид битрейта : Постоянный
    Битрейт : 192 Кбит/сек
    Каналы : 2 канала
    Расположение каналов : Front: L R
    Частота : 48,0 КГц
    Метод сжатия : С потерями
    Размер потока : 53,8 Мбайт (3%)
    Заголовок : Goblin
    Язык : Russian
    Default : Нет
    Forced : Нет

    Аудио #3
    Идентификатор : 4
    Формат : AC-3
    Формат/Информация : Audio Coding 3
    Расширение режима : CM (complete main)
    Параметр Endianness формата : Big
    Идентификатор кодека : A_AC3
    Продолжительность : 39 м.
    Вид битрейта : Постоянный
    Битрейт : 192 Кбит/сек
    Каналы : 2 канала
    Расположение каналов : Front: L R
    Частота : 48,0 КГц
    Метод сжатия : С потерями
    Размер потока : 53,8 Мбайт (3%)
    Заголовок : Кубик в кубе
    Язык : Russian
    Default : Нет
    Forced : Нет

    Аудио #4
    Идентификатор : 5
    Формат : AC-3
    Формат/Информация : Audio Coding 3
    Расширение режима : CM (complete main)
    Параметр Endianness формата : Big
    Идентификатор кодека : A_AC3
    Продолжительность : 39 м.
    Вид битрейта : Постоянный
    Битрейт : 192 Кбит/сек
    Каналы : 2 канала
    Расположение каналов : Front: L R
    Частота : 48,0 КГц
    Метод сжатия : С потерями
    Размер потока : 53,8 Мбайт (3%)
    Заголовок : AlexFilm
    Язык : Russian
    Default : Нет
    Forced : Нет

    Аудио #5
    Идентификатор : 6
    Формат : AC-3
    Формат/Информация : Audio Coding 3
    Расширение режима : CM (complete main)
    Параметр Endianness формата : Big
    Идентификатор кодека : A_AC3
    Продолжительность : 39 м.
    Вид битрейта : Постоянный
    Битрейт : 192 Кбит/сек
    Каналы : 2 канала
    Расположение каналов : Front: L R
    Частота : 48,0 КГц
    Метод сжатия : С потерями
    Размер потока : 53,8 Мбайт (3%)
    Заголовок : NewStudio
    Язык : Russian
    Default : Нет
    Forced : Нет

    Аудио #6
    Идентификатор : 7
    Формат : AC-3
    Формат/Информация : Audio Coding 3
    Расширение режима : CM (complete main)
    Параметр Endianness формата : Big
    Идентификатор кодека : A_AC3
    Продолжительность : 39 м.
    Вид битрейта : Постоянный
    Битрейт : 192 Кбит/сек
    Каналы : 2 канала
    Расположение каналов : Front: L R
    Частота : 48,0 КГц
    Метод сжатия : С потерями
    Размер потока : 53,8 Мбайт (3%)
    Заголовок : Jaskier
    Язык : Russian
    Default : Нет
    Forced : Нет

    Аудио #7
    Идентификатор : 8
    Формат : AC-3
    Формат/Информация : Audio Coding 3
    Расширение режима : CM (complete main)
    Параметр Endianness формата : Big
    Идентификатор кодека : A_AC3
    Продолжительность : 39 м.
    Вид битрейта : Постоянный
    Битрейт : 384 Кбит/сек
    Каналы : 6 каналов
    Расположение каналов : Front: L C R, Side: L R, LFE
    Частота : 48,0 КГц
    Метод сжатия : С потерями
    Размер потока : 108 Мбайт (6%)
    Заголовок : Original
    Язык : English
    Default : Нет
    Forced : Нет

    Текст #1
    Идентификатор : 9
    Формат : UTF-8
    Идентификатор кодека : S_TEXT/UTF8
    Идентификатор кодека/Информация : UTF-8 Plain Text
    Заголовок : Amedia
    Язык : Russian
    Default : Нет
    Forced : Нет

    Текст #2
    Идентификатор : 10
    Формат : UTF-8
    Идентификатор кодека : S_TEXT/UTF8
    Идентификатор кодека/Информация : UTF-8 Plain Text
    Заголовок : Original
    Язык : English
    Default : Нет
    Forced : Нет

    "Большинство" с Сергеем Минаевым - Россия – Китай: партнеры или конкуренты? (Эфир от 24.06.2016) [2016, общественно-политическое ток-шоу, SATRip]
    2016-06-24 18:46
    "Большинство" с Сергеем Минаевым. Россия – Китай: партнеры или конкуренты? (Эфир от 24.06.2016)
    Перевод: Не требуется, cубтитры: отсутствуют
    Формат: SATRip, AVI, XviD, MP3
    Страна: Россия
    Жанр: общественно-политическое ток-шоу
    Продолжительность: ~01:30:00
    Год выпуска: 2016

    Ведущий: Сергей Минаев
    Описание:
    Общественно-политическое ток-шоу с писателем и телеведущим Сергеем Минаевым. В каждом выпуске – обсуждение актуальной темы недели с участием политиков, чиновников, представителей бизнеса и экспертов, а также тех, кто представляет «большинство» – жителей страны, неравнодушных к тому, что происходит, и готовых задавать неудобные и острые вопросы.


    Видео: 720x448, 720x400 (1.80:0), 25 fps, XviD build 50 ~1800 kbps avg, 0.19 bit/pixel
    Аудио: 48 kHz, MPEG Layer 3, 2 ch, ~128.00 kbps avg

    Показать скриншоты

    Мультитрекер. Тех. данные, скриншоты практически идентичны, НЕ обновляются




    VA - Tech Trance Essentials Vol 1 [2016, Trance, Uplifting Trance, MP3]
    2016-06-24 18:37
    VA - Tech Trance Essentials Vol 1
    Формат: MP3, tracks, 320kbps
    Год выпуска: 2016
    Страна: All World
    Жанр: Trance, Uplifting Trance
    Продолжительность: 03:03:16
    Описание:
    01. Fergie & Sadrian - Pitch Down (Original Mix) [06:19]
    02. Soundbreeze - Be Machine (Original Mix) [06:01]
    03. Pavel Tkachev - On Created (Original Mix) [05:54]
    04. Vita - Lost Paradise (Original Mix) [07:15]
    05. Logic Status - Innerstate (Original Mix) [07:25]
    06. Paul Webster - Long Wait (Original Mix) [06:30]
    07. Highforcer - Warpdrive (Original Mix) [07:48]
    08. Michael Fearon - Litha (Toast Remix) [04:37]
    09. Alejandro Calderon - It Always Ends The Same (Lost Mix) [08:15]
    10. Malc B - Incipient (Original Mix) [06:14]
    11. Tuomas.L - Fear of Faith (Original Mix) [06:10]
    12. Jedmar - Beautiful Days Will Come (Zutt Muziker Remix) [06:45]
    13. Robert Vadney - Broken Home (Vocal Mix) [08:40]
    14. Tempo Giusto - Tranceborn (Original Mix) [06:39]
    15. Cyber-Project - Drop The Bass (Original Mix) [07:39]
    16. Boriz Vicious - Pinchango (Original Mix) [09:24]
    17. Yusef Kifah - Exolektra (Original Mix) [07:00]
    18. K&F - Raw York (Original Mix) [07:04]
    19. Tomtech - Luna (Tomtech Remix) [011:59]
    20. Luke Costa - The Last Day On Earth (Original Mix) [07:19]
    21. Sebastian Montano - Mare Nostrum (LowProfile Remix) [08:29]
    22. Astrax - Calada (Amos & Riot Night Remix) [06:42]
    23. Fergie & Sadrian - Livewire (Casey Rasch Remix) [06:39]
    24. Andy Elliass - Gravity (Joze Linecker Remix) [07:56]
    25. Neos - Predator (Neos Dark Remix) [08:33]

    Подопытные: Остров биоников, 4 сезон 1-14, 16, 17, 19-26 серии из 26 / Lab Rats: Bionic Island [Невафильм] (Крис Петерсон, Брайан Мур) [2015, фэнтези, комедия, WEB-DLRip, D]
    2016-06-24 18:35
    Подопытные: Остров биоников / Lab Rats: Bionic Island(4 сезон)

    Перевод: Профессиональный (дублированный) | Невафильм
    Субтитры: отсутствуют
    Формат: WEB-DLRip, AVI, DivX 5, AC3
    Страна: США
    Режиссер: Крис Петерсон, Брайан Мур
    Жанр: фэнтези, комедия
    Всего серий: 26
    Продолжительность: 24 x ~ 00:22:00
    Год выпуска: 2015

    В ролях: Билли Ангер, Спенсер Болдмэн, Келли Бёрглунд, Тайрел Джексон Уильямс, Хэл Спаркс, Мэйл Флэнеган, Энджел Паркер, Уилл Форте, Джереми Кент Джексон, Мэдисон Петтис

    Описание: Эти трое подростков — результат уникального эксперимента, проведённого изобретателем Дональдом Дэвенпортом. Адам может подбросить в воздух автомобиль, словно пушинку, Чейс обладает суперинтеллектом, а Бри способна бегать со скоростью молнии. А вот родной сын Дональда — Лео — обычный школьник, который не может похвастаться никакими сверхспособностями. Но однажды, случайно проникнув в секретную лабораторию отца, паренёк знакомится с юными супергероями. Лео убеждает Дональда, что ребятам нужно общение со сверстниками, и приводит их в школу. Увенчается ли успехом и этот эксперимент?

    Рейтинг:

    Видео: 720x400 (1.80:1), 23.976 fps, XviD build 65 ~1771 kbps avg, 0.25 bit/pixel
    Аудио #1: Русский: 48 kHz, AC3 Dolby Digital, 2/0 (L,R) ch, ~192 kbps [Невафильм]
    Аудио #2: Английский: 48.0 kHz, AC3 Dolby Digital, 3/2 (L,C,R,l,r) + LFE ch, ~384 kbps avg [Оригинал]



    Доп. информация: 5,9,12,13,17,19,20,23,24 серии на Диснее были показаны в урезанном виде, поэтому много мест без перевода. 15 и 18 серии как обычно не показали.

    Огромная благодарность за предоставленный релиз miha2154

    Медиа инфо
    Общее

    Полное имя : M:\4x01&02 - Bionic Rebellion.avi
    Формат : AVI
    Формат/Информация : Audio Video Interleave
    Размер файла : 703 Мбайт
    Продолжительность : 41 м.
    Общий поток : 2361 Кбит/сек
    Название фильма : Подопытные: Остров биоников. Сезон 4 / Lab Rats: Bionic Island. Season 4 (2015)
    Программа кодирования : VirtualDubMod 1.5.10.2 (build 2540/release)
    Библиотека кодирования : VirtualDubMod build 2540/release
    Авторское право : miha2154

    Видео

    Идентификатор : 0
    Формат : MPEG-4 Visual
    Профиль формата : Advanced Simple@L5
    Параметр BVOP формата : 1
    Параметр QPel формата : Нет
    Параметр GMC формата : Без точки перехода
    Параметр матрицы формата : Выборочная
    Идентификатор кодека : DX50
    Идентификатор кодека/Подсказка : DivX 5
    Продолжительность : 41 м.
    Битрейт : 1771 Кбит/сек
    Ширина : 720 пикселей
    Высота : 400 пикселей
    Соотношение сторон : 16:9
    Частота кадров : 23,976 (24000/1001) кадра/сек
    Цветовое пространство : YUV
    Субдискретизация насыщенности : 4:2:0
    Битовая глубина : 8 бит
    Тип развёртки : Прогрессивная
    Метод сжатия : С потерями
    Бит/(Пиксели*Кадры) : 0.256
    Размер потока : 527 Мбайт (75%)
    Библиотека кодирования : XviD 65

    Аудио #1

    Идентификатор : 1
    Формат : AC-3
    Формат/Информация : Audio Coding 3
    Расширение режима : CM (complete main)
    Параметр Endianness формата : Big
    Идентификатор кодека : 2000
    Продолжительность : 41 м.
    Вид битрейта : Постоянный
    Битрейт : 192 Кбит/сек
    Каналы : 2 канала
    Расположение каналов : Front: L R
    Частота : 48,0 КГц
    Частота кадров : 31,250 кадров/сек (1536 spf)
    Метод сжатия : С потерями
    Размер потока : 57,1 Мбайт (8%)
    Выравнивание : Разделение по промежуткам
    Продолжительность промежутка : 42 мс. (1,00 видеокадр)
    Время предзагрузки промежутка : 500 мс.
    Заголовок : Профессиональный (полное дублирование) Disney

    Аудио #2

    Идентификатор : 2
    Формат : AC-3
    Формат/Информация : Audio Coding 3
    Расширение режима : CM (complete main)
    Параметр Endianness формата : Big
    Идентификатор кодека : 2000
    Продолжительность : 41 м.
    Вид битрейта : Постоянный
    Битрейт : 384 Кбит/сек
    Каналы : 6 каналов
    Расположение каналов : Front: L C R, Side: L R, LFE
    Частота : 48,0 КГц
    Частота кадров : 31,250 кадров/сек (1536 spf)
    Метод сжатия : С потерями
    Размер потока : 114 Мбайт (16%)
    Выравнивание : Разделение по промежуткам
    Продолжительность промежутка : 42 мс. (1,00 видеокадр)
    Время предзагрузки промежутка : 500 мс.
    Заголовок : Английский

    Подопытные: Остров биоников, 4 сезон 24 серии из 26 / Lab Rats: Bionic Island [Невафильм] (Виктор Гонзалез, Хэл Спаркс) [2015, фэнтези, комедия, WEB-DLRip, D]
    2016-06-24 18:35
    Подопытные: Остров биоников / Lab Rats: Bionic Island(4 сезон)

    Перевод: Профессиональный (полное дублирование) | Невафильм
    Субтитры: отсутствуют
    Формат: WEB-DLRip, AVI, XviD, AC3
    Страна: США
    Режиссер: Виктор Гонзалез, Гай Дистад, Хэл Спаркс
    Жанр: фэнтези, комедия
    Всего серий: 26
    Продолжительность: 24 x ~ 00:22:00
    Год выпуска: 2015

    В ролях: Билли Ангер, Спенсер Болдмэн, Келли Бёрглунд, Тайрел Джексон Уильямс, Хэл Спаркс, Мэйл Флэнеган, Энджел Паркер, Уилл Форте, Джереми Кент Джексон, Мэдисон Петтис

    Описание: Эти трое подростков — результат уникального эксперимента, проведённого изобретателем Дональдом Дэвенпортом. Адам может подбросить в воздух автомобиль, словно пушинку, Чейс обладает суперинтеллектом, а Бри способна бегать со скоростью молнии. А вот родной сын Дональда — Лео — обычный школьник, который не может похвастаться никакими сверхспособностями. Но однажды, случайно проникнув в секретную лабораторию отца, паренёк знакомится с юными супергероями. Лео убеждает Дональда, что ребятам нужно общение со сверстниками, и приводит их в школу. Увенчается ли успехом и этот эксперимент?

    Рейтинг:

    Видео: 720x400 (1.80:1), 23.976 fps, XviD build 65 ~1771 kbps avg, 0.25 bit/pixel
    Аудио #1: Русский: 48 kHz, AC3 Dolby Digital, 2/0 (L,R) ch, ~192 kbps [Невафильм]
    Аудио #2: Английский: 48.0 kHz, AC3 Dolby Digital, 3/2 (L,C,R,l,r) + LFE ch, ~384 kbps avg [Оригинал]



    Доп. информация: 5,9,12,13,17,19,20,23,24 серии на Диснее были показаны в урезанном виде, поэтому много мест без перевода. 15 и 18 серии как обычно не показали.

    Огромная благодарность за предоставленный релиз miha2154

    Медиа инфо
    Общее

    Полное имя : M:\4x01&02 - Bionic Rebellion.avi
    Формат : AVI
    Формат/Информация : Audio Video Interleave
    Размер файла : 703 Мбайт
    Продолжительность : 41 м.
    Общий поток : 2361 Кбит/сек
    Название фильма : Подопытные: Остров биоников. Сезон 4 / Lab Rats: Bionic Island. Season 4 (2015)
    Программа кодирования : VirtualDubMod 1.5.10.2 (build 2540/release)
    Библиотека кодирования : VirtualDubMod build 2540/release
    Авторское право : miha2154

    Видео

    Идентификатор : 0
    Формат : MPEG-4 Visual
    Профиль формата : Advanced Simple@L5
    Параметр BVOP формата : 1
    Параметр QPel формата : Нет
    Параметр GMC формата : Без точки перехода
    Параметр матрицы формата : Выборочная
    Идентификатор кодека : DX50
    Идентификатор кодека/Подсказка : DivX 5
    Продолжительность : 41 м.
    Битрейт : 1771 Кбит/сек
    Ширина : 720 пикселей
    Высота : 400 пикселей
    Соотношение сторон : 16:9
    Частота кадров : 23,976 (24000/1001) кадра/сек
    Цветовое пространство : YUV
    Субдискретизация насыщенности : 4:2:0
    Битовая глубина : 8 бит
    Тип развёртки : Прогрессивная
    Метод сжатия : С потерями
    Бит/(Пиксели*Кадры) : 0.256
    Размер потока : 527 Мбайт (75%)
    Библиотека кодирования : XviD 65

    Аудио #1

    Идентификатор : 1
    Формат : AC-3
    Формат/Информация : Audio Coding 3
    Расширение режима : CM (complete main)
    Параметр Endianness формата : Big
    Идентификатор кодека : 2000
    Продолжительность : 41 м.
    Вид битрейта : Постоянный
    Битрейт : 192 Кбит/сек
    Каналы : 2 канала
    Расположение каналов : Front: L R
    Частота : 48,0 КГц
    Частота кадров : 31,250 кадров/сек (1536 spf)
    Метод сжатия : С потерями
    Размер потока : 57,1 Мбайт (8%)
    Выравнивание : Разделение по промежуткам
    Продолжительность промежутка : 42 мс. (1,00 видеокадр)
    Время предзагрузки промежутка : 500 мс.
    Заголовок : Профессиональный (полное дублирование) Disney

    Аудио #2

    Идентификатор : 2
    Формат : AC-3
    Формат/Информация : Audio Coding 3
    Расширение режима : CM (complete main)
    Параметр Endianness формата : Big
    Идентификатор кодека : 2000
    Продолжительность : 41 м.
    Вид битрейта : Постоянный
    Битрейт : 384 Кбит/сек
    Каналы : 6 каналов
    Расположение каналов : Front: L C R, Side: L R, LFE
    Частота : 48,0 КГц
    Частота кадров : 31,250 кадров/сек (1536 spf)
    Метод сжатия : С потерями
    Размер потока : 114 Мбайт (16%)
    Выравнивание : Разделение по промежуткам
    Продолжительность промежутка : 42 мс. (1,00 видеокадр)
    Время предзагрузки промежутка : 500 мс.
    Заголовок : Английский

    VA - The Sensation Of Spacesynth For New Generation Part 4 [2013, Electronic, Spacesynth, MP3]
    2016-06-24 18:31
    VA - The Sensation Of Spacesynth For New Generation Part 4
    Формат: MP3, image, 224kbps [VBR]
    Год выпуска: 2013
    Страна: All World
    Жанр: Electronic, Spacesynth
    Продолжительность: 01:32:00
    Описание:

    Трэклист

    01. Cyberman - Loneliness (Spacesynth 2013)
    02. Zodiac - Mysterious Falaxy (Abbsynth Remix)
    03. Cyber Space - Moon Express (Spacesynth 2013)
    04. Wiklund - Hyperion 2013 (Spacesynth 2012)
    05. Spiral Hands On IV Elwood - Unknown Phuture (Spacesynth 2013)
    06. DelFine - Orion (Spacesynth 2013)
    07. Diduct - One Time Emotion (Spacesynth 2013)
    08. Cyber Space - Free My Body (Spacesynth 2013)
    09. Bellatrix - Secret (Spacesynth 2013)
    10. Mc'GAJveR - End Of The Year (Arti'art84 Remix)
    11. Cyberman - Burning Planet (Spacesynth 2013)
    12. Voltage Processor - The Wave (Spacesynth 2012)
    13. Bellatrix - Magnetic (Spacesynth 2013)
    14. Rutger Megahertz - Celestial (Spacesynth 2013)
    15. PH Groove - Nighthawk Fever (SinthWave 2013)
    16. Mystical Digital - Time Goes By (Synth-Instrumental 2013)
    17. Spiral Hands On IV Prism - Clover Leaf (Spacesynth 2013)
    18. Marcel De Van - Discotheque (Summer Edit 2013)
    19. Spiral Hands On IV Jochen Hippel - Wing Of Death (Level 1) (Spacesynth 2013)
    20. Sky Van Dreamer - Cape Hopes (Ambient 2013)

    Доп. информация: Non stop Mix

    AutoCAD 2015 (Андрей Орлов) [2015, Компьютерная литература, PDF, eBook (изначально компьютерное)]
    2016-06-24 18:29
    AutoCAD 2015

    ISBN: 978-5-496-01437-3
    Формат: PDF, eBook (изначально компьютерное)
    Автор: Андрей Орлов
    Год выпуска: 2015
    Жанр: Компьютерная литература
    Издательство: Питер
    Серия: Вне серии
    Язык: Русский
    Количество страниц: 384

    Описание: С помощью данного практического руководства вы изучите новую версию самой популярной программы для проектирования и черчения — AutoCAD 2015.
    Книга идеально подойдет как для пользователей, которые только начинают осваивать черчение на компьютере, так и для пользователей, уже знакомых с продукцией Autodesk и желающих освоить изменения в новой версии программы. Вы узнаете, как настраивать параметры чертежа, пользоваться инструментами для черчения и редактирования созданных объектов, создавать ЗD-модели. и многое другое.