Новости: Результаты онлайн опроса: "Домашнее телевидение"

Последние новости

Slayer - When the Stillness Comes [Single] [18.04.2015, Thrash Metal, MP3]
2015-04-18 03:57
error getting text

Города Победы (43 выпуска из ?) (Первый канал) [2015, документальный, военный, история, HDTVRip-AVC]
2015-04-18 02:32
Города Победы (43 выпуска из ?)
Перевод: Не требуется, cубтитры: отсутствуют
Формат: HDTVRip-AVC, MKV, H.264, AC3
Страна: Россия
Режиссер: Первый канал
Жанр: документальный, военный, история
Продолжительность: 43 х ~ 00:08:00
Год выпуска: 2015

Описание: К 70-летию Победы в Великой Отечественной Войне Первый канал рассказывает о 13 городах-героях и 40 городах воинской славы в специальном проекте «Города Победы». Каждая серия проекта посвящена отдельному городу: в рамках передачи речь идёт об истории города и подвиге в военные годы, патриотизме и местных жителях.

Видео: 640x328 (1.951), 25 fps, AVC MPEG-4 (x264), High@L4.1, ~ 1 230 kbps avg, 0.234 bit/pixel
Аудио: 48.0 kHz, AC3, (Front: L R), 2 ch ~128 Kbps avg

MediaInfo
Format : Matroska
Format version : Version 4 / Version 2
File size : 59.9 MiB
Duration : 6mn 9s
Overall bit rate : 1 360 Kbps
Movie name : Рип от SySat
Encoded date : UTC 2015-04-16 19:35:07
Writing application : mkvmerge v7.8.0 ('River Man') 64bit built on Mar 27 2015 16:31:37
Writing library : libebml v1.3.1 + libmatroska v1.4.2
Attachements : cover.jpg
DURATION : 00:06:09.696000000
NUMBER_OF_FRAMES : 11553
NUMBER_OF_BYTES : 5915136
_STATISTICS_WRITING_APP : mkvmerge v7.8.0 ('River Man') 64bit built on Mar 27 2015 16:31:37
_STATISTICS_WRITING_DATE_UT : 2015-04-16 19:35:07
_STATISTICS_TAGS : BPS DURATION NUMBER_OF_FRAMES NUMBER_OF_BYTES

Video
ID : 1
Format : AVC
Format/Info : Advanced Video Codec
Format profile : High@L4.1
Format settings, CABAC : Yes
Format settings, ReFrames : 16 frames
Codec ID : V_MPEG4/ISO/AVC
Duration : 6mn 9s
Bit rate : 1 230 Kbps
Width : 640 pixels
Height : 328 pixels
Display aspect ratio : 1.951
Frame rate mode : Constant
Frame rate : 25.000 fps
Color space : YUV
Chroma subsampling : 4:2:0
Bit depth : 8 bits
Scan type : Progressive
Bits/(Pixel*Frame) : 0.234
Stream size : 53.1 MiB (89%)
Title : 1 Канал
Writing library : x264 core 144 r2525 40bb568
Encoding settings : cabac=1 / ref=16 / deblock=1:-2:-2 / analyse=0x3:0x113 / me=tesa / subme=11 / psy=1 / psy_rd=1.00:0.00 / mixed_ref=1 / me_range=32 / chroma_me=1 / trellis=2 / 8x8dct=1 / cqm=0 / deadzone=21,11 / fast_pskip=0 / chroma_qp_offset=-2 / threads=12 / lookahead_threads=2 / sliced_threads=0 / nr=0 / decimate=0 / interlaced=0 / bluray_compat=0 / constrained_intra=0 / bframes=16 / b_pyramid=2 / b_adapt=2 / b_bias=0 / direct=3 / weightb=1 / open_gop=0 / weightp=2 / keyint=250 / keyint_min=25 / scenecut=40 / intra_refresh=0 / rc_lookahead=40 / rc=2pass / mbtree=0 / bitrate=1230 / ratetol=1.0 / qcomp=0.60 / qpmin=0 / qpmax=69 / qpstep=6 / cplxblur=20.0 / qblur=0.5 / vbv_maxrate=14000 / vbv_bufsize=14000 / nal_hrd=none / filler=0 / ip_ratio=1.40 / pb_ratio=1.30 / aq=1:1.00
Language : Russian
Default : Yes
Forced : No
Color range : Limited
Color primaries : BT.709
Transfer characteristics : BT.709
Matrix coefficients : BT.709

Audio
ID : 2
Format : AC-3
Format/Info : Audio Coding 3
Mode extension : CM (complete main)
Format settings, Endianness : Big
Codec ID : A_AC3
Duration : 6mn 9s
Bit rate mode : Constant
Bit rate : 128 Kbps
Channel(s) : 2 channels
Channel positions : Front: L R
Sampling rate : 48.0 KHz
Compression mode : Lossy
Stream size : 5.64 MiB (9%)
Title : 1 Канал
Language : Russian
Default : Yes
Forced : No
Содержание

001_Города Победы. Брест - 2015.02.01
002_Города Победы. Псков - 2015.02.02
003_Города Победы. Белгород - 2015.02.03
004_Города Победы. Колпино - 2015.02.04
005_Города Победы. Ржев - 2015.02.05
006_Города Победы. Наро-Фоминск - 2015.02.06
007_Города Победы. Смоленск - 2015.02.07
008_Города Победы. Ораниенбаум - 2015.02.09
009_Города Победы. Анапа - 2015.02.10
010_Города Победы. Волоколамск - 2015.02.11
011_Города Победы. Петропавловск-Камчатский - 2015.02.16
012_Города Победы. Одесса - 2015.02.17
013_Города Победы. Калинин - 2015.02.18
014_Города Победы. Великие Луки - 2015.02.21
015_Города Победы. Брянск - 2015.02.22
016_Города Победы. Старый Оскол - 2015.02.24
017_Города Победы. Владивосток - 2015.02.25
018_Города Победы. Дмитров - 2015.02.28
019_Города Победы. Архангельск - 2015.03.02
020_Города Победы. Малгобек - 2015.03.03
021_Города Победы. Елец - 2015.03.04
022_Города Победы. Великий Новгород - 2015.03.05
023_Города Победы. Можайск - 2015.03.07
024_Города Победы. Полярный - 2015.03.08
025_Города Победы. Ельня - 2015.03.12
026_Города Победы. Ростов-на-Дону - 2015.03.13
027_Города Победы. Новороссийск - 2015.03.16
028_Города Победы. Хабаровск - 2015.03.17
029_Города Победы. Орёл - 2015.03.20
030_Города Победы. Козельск - 2015.03.21
031_Города Победы. Выборг - 2015.03.23
032_Города Победы. Вязьма - 2015.03.24
033_Города Победы. Мурманск - 2015.03.25
034_Города Победы. Владикавказ - 2015.03.26
035_Города Победы. Тихвин - 2015.03.27
036_Города Победы. Керчь - 2015.03.28
037_Города Победы. Сталинград - 2015.03.30
038_Города Победы. Туапсе - 2015.03.31
039_Города Победы. Курск - 2015.04.01
040_Города Победы. Киев - 2015.04.03
041_Города Победы. Грозный - 2015.04.06
042_Города Победы. Ленинград - 2015.04.07
043_Города Победы. Москва - 2015.04.08
Внимание! Раздача ведётся путём добавления новых серий
Внимание! Раздача ведётся путём добавления новых серий; при каждом добавлении создётся новый торрент. Чтобы начать докачку новой серии, пользователям необходимо сделать следующее:
(1) остановить скачивание,
(2) удалить старый торрент у себя из клиента (старые серии удалять не надо),
(3) скачать новый торрент и запустить его у себя в клиенте вместо старого, при этом указать клиенту путь в старую папку куда и должно происходить скачивание новых серий.

Ваш клиент при этом должен произвести хеширование (проверку) старой папки (если не производит сам - помогите ему сделать это), и будет докачивать только те серии которых у вас ещё нет. Старые серии при этом не удаляются, а продолжают раздаваться!

Eсли вы уже удалили старые серии, то предотвратить повторную закачку старых серий можно, отжав галочку в соответсвующих местах при запуске нового торрента. По возможности, желательно не удалять старые серии как можно дольше чтобы релизёр не столько продолжал раздавать старые серии, а смог сконцентрироваться на новых.


Crack V3 + Patch 2 для Grand Theft Auto 5 [2015, Crack, Patch]
2015-04-18 02:28
Crack V3 + Patch 2 для Grand Theft Auto 5
Год выпуска: 2015
Жанр: Crack, Patch
Разработчик: 3DM
Издательство: 3DM
Язык интерфейса: Русский
Платформа: PC
Системные требования: OS: Windows 8.1 64 Bit, Windows 8 64 Bit, Windows 7 64 Bit Service Pack 1, Windows Vista 64 Bit Service Pack 2* (*NVIDIA video card recommended if running Vista OS)
Processor: Intel Core 2 Quad CPU Q6600 @ 2.40GHz (4 CPUs) / AMD Phenom 9850 Quad-Core Processor (4 CPUs) @ 2.5GHz
Memory: 4GB
Video Card: NVIDIA 9800 GT 1GB / AMD HD 4870 1GB (DX 10, 10.1, 11)
Sound Card: 100% DirectX 10 compatible
HDD Space: 65GB
Описание: Crack by 3DM v.3.0 + Patch 2 (Update 2) для GTA 5 / Grand Theft Auto 5
Добавлена таблетка Crack by 3DM v.3.0 для Update 2 | Добавлена поддержка Windows 7 / 8 / 8.1

Доп. информация: Установить в корень игры
Играть


Рекомендации
Рекомендуется выключить интерент, либо через файерволл запретить гта5 выход в интернет.
Запуск игры с файла Launcher.exe.
В реестре надо поменять путь к игре (Например D:\Grand Theft Auto V) изменить на свой.
Реестр необязателен.

Реестр отдельно (для выбора языка в игре
[HKEY_LOCAL_MACHINE\SOFTWARE\Wow6432Node\rockstar games]
"Installed Applications"="1"

[HKEY_LOCAL_MACHINE\SOFTWARE\Wow6432Node\rockstar games\Grand Theft Auto V]
"InstallFolder"="D:\\Ваш путь к игре\\GRAND THEFT AUTO V\"
"PatchVersion"=""
"Language"="ru-RU"
"Game Version"="\"1.00.0000\""
"Game Type"="Digital"

[HKEY_LOCAL_MACHINE\SOFTWARE\Wow6432Node\rockstar games\Grand Theft Auto V\"1.00.0000"]

Если имеется проблема с Social Club
Чтобы обойти Social Club:

Дело в том, что Social Club не видит сохранений, которые хранятся в папке "Мои документы". Почему? Потому что путь не полностью на английском.
Делаем вот что:
1. Создаете новую папку My documents на диске С ("С:/My documents").
2. Заходите в "Мой компьютер". Справа где видно ваши диски, папки и т.п, ищем "Мои документы". Правой клавишей > Свойства > вкладка Расположение > кнопка Переместить > в окне выбираете нашу папку папку ("С:/My documents") > ждете когда скопируются файлы > Готово.
3. Можете запускать игру через Launcher.exe . Теперь игра видит сохранения и не просит регистрации в Social Club."

Внимание! Все пути к игре, имя компьютера и мои документы не должны содержать русских букв!

VA - Dubai Cafe Vol 1 Oriental Buddha Lounge [2015, Downtempo, Chillout, Lounge, MP3]
2015-04-18 01:55
VA - Dubai Cafe Vol 1 Oriental Buddha Lounge
Формат: MP3, tracks, 320kbps
Год выпуска: 2015
Страна: All World
Жанр: Downtempo, Chillout, Lounge
Продолжительность: 01:27:17
Описание: 01. Latif Rayhan - Aleppo
02. Cambis - Aman Aman
03. Lemongrass - Bamboo House
04. Lazy Hammock - Apocalyptic Journey
05. Billy Esteban - Awakening
06. Yantra Mantra - Borderland
07. Life Audience - Buddha Wear Headphones
08. Jasmon - Desert Flower
09. Pianochocolate - Lilac
10. Mirage Of Deep - Distant Deeps
11. Yantra Mantra - Caravanserai
12. Somchai - DXB-BKK - Do Not Fly Emirates Mix
13. The Diventa Project - First Date
14. Billy Esteban - Izrael
15. Yantra Mantra - Kusuma
16. Yin And Yang - Golden Sun
17. Jasmon - Magnolia
18. CaPa - Masquerade, Pt. 1
19. Lazy Hammock - Moreno
20. Yantra Mantra - Lefkosa

Va - I Love Italo Disco ot Vitaly 72 [2015, Italo-Disco, Synth-pop, Disco, MP3]
2015-04-18 01:49
Va - I Love Italo Disco ot Vitaly 72
Формат: MP3, tracks, 320kbps
Год выпуска: 2015
Страна: All World
Жанр: Italo-Disco, Synth-pop, Disco
Продолжительность: 04:57:43
Описание:

Tracklist
001. Boy Blue - Alone Again (Extended Version)
002. Skynight Avenue - Eppur Si Muove (Single Version)
003. Boris Zhivago - In A World Of Fantasy (Long Fantasy Mix)
004. Birizdo I Am - Mademoiselle (Extended Edit DJ Manuel Rios)
005. Tonschatz - Midlife Dreams (Single Version)
006. Tam Harrow - Incredible
007. Ernesto & Fancy - Bolero
008. Bad Mark - The Night Of Lies (TS-EC Version)
009. Birizdo I Am - Love Paradise
010. Emy Care - Dream of Fantasy
011. Alan Brando - Don't Let My Heart Say Goodbye (Vocal Mix)
012. Magic System D.J. - Silent Emotions
013. Crossfire feat. Axenia - Piece Of My Heart
014. Pataky Attila - Lady Fantasy
015. Estimado - Sun Time
016. 1st Heavenue - E=mc2 (Time Travel Maxi)
017. Bonfeel Electro Band - Tonight
018. Neon Game - The State Is Stealing My Life
019. Mike Hammer - Shock Me
020. Tam Harrow - Not Today, Not Tonight
021. Avenue - Voices Of Animals (Maxi Version)
022. Bobby O - Nothing (Extended Wow! Retro Rmx Dj.Manuel Rios)
023. Ranger - In your Eyes
024. Momento - I Used To Be (Remix Vocal)
025. Iris - Come with me
026. Romantic Avenue - Two Hearts, One Goodbye (feat. Yaroslav)
027. Siberian Heat - Magic Blue Eyes (Maxi Version)
028. Boy Blue - Hold Me In Your Heart (Maxi Version)
029. Skynight Avenue - Last Fight Of The Vampires (Single Version)
030. Aldo Lesina - Goodbye (Extended Power Mix)
031. Brian Ice - Inside My Lonely Night (Extended Version)
032. Tanschatz -Take Your Chance (Single Version)
033. Savage - Save Me (Flashback Remix)
034. Tonschatz - Everything Is Possible (Maxi Version)
035. Modo - With or without you
036. Boy Blue - The Sadness In Her Eyes (Extended Vocal Mix)
037. Elen Cora - Astronomers In China (Extended Version)
038. Riccardo Campa - The Witch (Original version)
039. Michael Rimini - Summertime In My Heart (Extended Version)
040. Chris Moon - My magic Carillon
041. Kirk Gadget - Murder In The Mid-City
042. Aldo Lesina - Romance (Disco Mix)
043. Tonschatz - Midnight Warrior (Maxi Version)
044. Alphaville - Big In Japan (Alkalino Rework)
045. Fancy - After Midnight (Behind The Night Mix)
046. Kristian Conde - Light In The Dark (by DVJ)
047. Diamond Rain - Leave It For Tonight
048. Romantic Avenue feat Heaven 42- Against the Odds (Extended Version)
049. Gurcam Erdem - Dancing On The Fire (Extended Version)
050. Peter Wilson - Pulsation (Tom Garrow 7 Remix)
051. Cosmic Blue - I want your Heart, I want your Soul
052. Modeone - Sometimes

Шарлотта Земляничка: Ягодные приключения (1-2 сезоны: 39 серий из 39) / Strawberry Shortcake's Berry Bitty Adventures (Майкл Хэк, Боб Хэчкок) [2010-2012, мультфильм, SATRip] DUB
2015-04-18 01:38
Шарлотта Земляничка: Ягодные приключения (1-2 сезоны: 39 серий из 39) / Strawberry Shortcake's Berry Bitty Adventures
Перевод: Профессиональный (полное дублирование), cубтитры: отсутствуют
Формат: SATRip, AVI, XviD, AC3
Страна: Франция, США, Канада
Режиссер: Майкл Хэк, Боб Хэчкок
Жанр: мультфильм
Продолжительность: 39 x ~ 00:21:00
Год выпуска: 2010-2012
В ролях: Анна Каммер, Эшли Болл, Ингрид Нильсон, Дженис Джауд, Бритт МакКилип, Андреа Либман, Пол Добсон

Описание: В самом сладком, ярком и ароматном мире живут настоящие подружки: Земляничка, Малинка, Черничка, Лимона, Апельсинка и Сливка. Эти ягодки всегда готовы прийти на помощь друг другу. Каждый день с маленькими модницами происходят занятные истории, но они умеют преодолевать трудности, превращая неприятности в забавные приключения. Тебе предложили помощь: как вежливо дать понять, что справишься сама или поступишь по-своему? Как выразить несогласие, но не поссориться? Как быть, если не получается выполнить задание или сдержать обещание? Как поделиться эмоциями, не задев чувств окружающих?



Видео: 720x528 (1.36:1), 25 fps, XviD build 50 ~1496 kbps avg, 0.16 bit/pixel
Видео: 720x416 (1.73:1), 25 fps, XviD build 50 ~1498 kbps avg, 0.20 bit/pixel
Видео: 720x400 (1.80:1), 25 fps, XviD build 50 ~1497 kbps avg, 0.21 bit/pixel
Аудио: 48 kHz, AC3 Dolby Digital, 2/0 (L,R) ch, ~192 kbps

Список серий

01 сезон
01. Домашний любимец / Fish Out of Water
02. Новое платье Шарлотты / A Stitch in Time
03. Праздник цветов / The Vanishing Violets
04. Малыш Ягодка / Babysitter Blues
05. Новый прибор / Hair Today, Gone Tomorrow
06. Сад Чернички / Pop Goes the Garden
07. Шарлотта — почтальон / The Berry Best You Can Bee
08. Как правильно принимать гостей / Strawberry's House Pests
09. Конкурс рекордов / Berry Bitty World Record
10. Правила / Too Cool for Rules
11. Выборы / Berry Best Berryfest Princess
12. Земляничный большой парад / Strawberry's Berry Big Parade
13. Самый лучший выбор / The Berry Best Choice
14. Страшилки / Nothing to Fear But Berries Themselves
15. Детектив Черничка / Where, Oh Where has Our Blueberry Gone
16. Маленькие ягодные гонки / Manners Meltdown
17. Большие и маленькие / Trading Sizes
18. Танцевальный марафон / Different Waltz for Different Faults
19. Первый мороз / Happy First Frost
20. Круг друзей / A Circle of Friends
21. Светоягодный бал / The Glimmerberry Ball
22. Гламикюр / Nice as Nails
23. Как ты играешь в игру / How You Play the Game
24. Клуб добрых граждан / Good Citizens Club
25. Команда для двоих / Team for Two
26. Потерян и найден / Lost and Found

02 сезон

01. Большой урожай / The Berry Big Harvest
02. Спальня под крышей / Room at the Top
03. Звёздный свет, яркий свет / Starlight, Star Bright
04. Дело мастера боится / Practice Makes Perfect
05. Шоу талантов / Top Talent
06. Звезда моды / A Star Is Fashioned
07. Нет никакого острова / No Blueberry Is an Island
08. Свежий ягодный ветер / Where the Berry Breeze Blows
Внимание! Раздача ведётся путём добавления новых серий
Внимание! Раздача ведётся путём добавления новых серий; при каждом добавлении создётся новый торрент. Чтобы начать докачку новой серии, пользователям необходимо сделать следующее:
(1) остановить скачивание,
(2) удалить старый торрент у себя из клиента (старые серии удалять не надо),
(3) скачать новый торрент и запустить его у себя в клиенте вместо старого, при этом указать клиенту путь в старую папку куда и должно происходить скачивание новых серий.

Ваш клиент при этом должен произвести хеширование (проверку) старой папки (если не производит сам - помогите ему сделать это), и будет докачивать только те серии которых у вас ещё нет. Старые серии при этом не удаляются, а продолжают раздаваться!

Eсли вы уже удалили старые серии, то предотвратить повторную закачку старых серий можно, отжав галочку в соответсвующих местах при запуске нового торрента. По возможности, желательно не удалять старые серии как можно дольше чтобы релизёр не столько продолжал раздавать старые серии, а смог сконцентрироваться на новых.

Личинки / Larva (01-90 серии) (Joo-Gong Meang / Жо-Гонг Меанг) [2012-2014, мультфильм, комедия, семейный, HDTVRip]
2015-04-18 01:26
Личинки / Larva (01-90 cерии)
Перевод: Не требуется, cубтитры: отсутствуют
Формат: HDTVRip, MP4, AVC, AAC
Страна: South Korea, CША
Режиссер: Joo-Gong Meang / Жо-Гонг Меанг
Жанр: мультфильм, комедия, семейный
Продолжительность: 90х~00:01:55
Год выпуска: 2012-2014

Описание:
Отпадный мультсериал, от которого в голос хохочут взрослые серьезные люди. Два закадычных друга-личинки, живущие под решеткой канализационного люка, наслаждаются жизнью по полной программе. Приятели устраивают себе вечеринки со знакомыми насекомыми, спасаются бегством от подводных чудищ и никогда не унывают.


Видео #1: 1280 x 720 (1.778) at 24.000 fps, AVC at 1706 Кбит/сек, 0.059 bit/pixel
Cерии - 13, 45, 41, 25:
Видео #2: 1920 x 1080 (1.778) at 24.000 fps, AVC at 1941 Кбит/сек, 0.039 bit/pixel
Аудио: AAC at 192 Кбит/сек, 2 канала, 44,1 КГц

Доп. информация:

Внимание! Я, не рекомендую к просмотру данного мультфильма детям - возраст которого вы определите, посмотрев пару серий.

Скоро будет добавлено новые серии. 18.04.15.

Список серий
01. Airform (Ep #24) [01:50]
02. Ant (Ep #36) [01:50]
03. Aquarium (Ep #27) [01:50]
04. Balloon (Ep #40) [01:48]
05. Bee (Ep #2) [01:53]
06. Cavity (Ep #31) [01:50]
07. Cement (Ep #47) [01:50]
08. Clock (Ep #55) [01:50]
09. Cocoon 1 (Ep #43) [01:50]
10. Cocoon 2 (Ep #46) [01:50]
11. Coin Toss (Ep #34) [01:50]
12. Concert (Ep #37) [01:50]
13. Dancing In The Rain (Ep #18) [01:50]
14. Eye Infection (Ep #53) [01:50]
15. Farting (Ep #3) [01:53]
16. Fishing (Ep #8) [01:50]
17. Fly (Ep #45) [01:50]
18. Frog (Ep #35) [01:49]
19. Glove (Ep #7) [01:50]
20. Gum 1 (Ep # 17) [01:50]
21. Gum 2 (Ep #42) [01:49]
22. Hailing (Ep #9) [01:50]
23. Hair-growth Solution (Ep #14) [01:50]
24. Ham (Ep #28) [01:50]
25. Hip Hop (Ep #49) [01:50]
26. Hot Springs (Ep #13) [01:50]
27. Ice Cream (Ep #15) [01:50]
28. Ice Road (Ep #22) [01:50]
29. Insectivorous Plant (Ep #52) [01:50]
30. Larvatar 1 (Ep #11) [01:50]
31. Laughing (Ep #1) [01:53]
32. Mosquito (Ep #20) [01:50]
33. Mummy (Ep #41) [01:50]
34. Mushroom (Ep #16) [01:50]
35. Out of Body (Ep #26) [01:50]
36. Pit (Ep #50) [01:50]
37. Popcorn (Ep #12) [01:50]
38. Pudding (Ep #30) [01:50]
39. Raining (Ep #51) [01:50]
40. Secret Of Snail (Ep #4) [01:53]
41. Snail (Ep #21) [01:50]
42. Snoring (Ep #23) [01:50]
43. Snot (Ep #6) [01:53]
44. Snowball (Ep #48) [01:50]
45. Soda (Ep #32) [01:50]
46. Spaghetti (Ep #29) [01:50]
47. Spider (Ep #5) [01:52]
48. Spring (Ep #56) [01:50]
49. Staring Contest (Ep #57) [01:50]
50. Stomachache (Ep #38) [01:47]
51. Straw (Ep #19) [01:50]
52. Terminator (Ep #44) [02:02]
53. Typhoon 1 (Ep #39) [01:50]
54. UFO (Ep #33) [01:50]
55. Vampire (Ep #54) [01:50]
56. Wart (Ep #10) [01:50]
57. Watermelon (Ep #25) [01:50]
58. Bee 2 (Ep #62) [01:50]
59. Growing a Plant (Ep #61) [01:50]
60. Parfume (Ep #58) [01:50]
61. Super Glue (Ep #59) [01:50]
62. Swing (Ep #60) [01:50]
63. Grape (Ep #63) [01:50]
64. Chick (Ep #67) [01:49]
65. Chick 2 (Ep #68) [01:50]
66. Rope (Ep #65) [01:50]
67. Scary Night (Ep #64) [01:50]
68. Super Liquid (Ep #66) [01:50]
69. Alien (Ep #74) [01:50]
70. Bottle (Ep #70) [01:50]
71. Chili Show (Ep #73) [01:50]
72. Hair-growth Solution 2 (Ep #71) [01:50]
73. Hand (Ep #69) [01:50]
74. Quick Sand (Ep #75) [01:50]
75. Typhoon 2 (Ep #72) [01:50]
76. Larvatar 2 (Ep #76)
77. Toy Car (Ep #77)
78. Love, Love, Love 1(Ep # 78)
79. Love Love Love 2 (Ep #79)
80. Swan Lake (Ep #80)
81. Electronic Shock (Ep #81)
82. Whistle (Ep #82)
83. Diving (Ep #83)
84. Fire (Ep #84)
85. Flying Yellow (Ep #85)
86. Water Show (Ep #86)
87. Balance (Ep #87)
88. Short Arm Octopus (Ep #88)
89. Moonlight Waltz (Ep #89)
90. Christmas (Ep #90)


VA - Latin Vibes Cool Rhythms for Exclusive Players [2015, Deep House, Chill House, MP3]
2015-04-18 01:23
VA - Latin Vibes Cool Rhythms for Exclusive Players
Формат: MP3, tracks, 320kbps
Год выпуска: 2015
Страна: All World
Жанр: Deep House, Chill House
Продолжительность: 02:21:37
Описание: 01. Tony Guitarra - Fiesta Latina
02. Mark Cruze - Latin House Stars
03. Johnny Bravo - Latin Flava - Beach Mix
04. Sunflowers - Feel My Sound - Latin Kiss Mix
05. Pool Side Ensemble - Latin in da House
06. Pascal Herrano - Latin Beach - Piano Mix
07. Hannah Simmons - Descarga Latina
08. The Bar Preachers - Latin Groove
09. Lisa - Ritmo Desta Noite
10. Xylophonik - Sueno Latino - Xylophonik Jazz Mix
11. The VIP - Cindy
12. Vicent Vicente - Mela Brasiliana
13. Alteria - Prasso
14. DJ Cubaton - Latin Mind
15. Mabibaland - Mendoza
16. Diego Polimeno - Tramonto Diun Giorno D'estate
17. Jason Paris - Sunflower
18. Disco Night - Latin Mood
19. Jet Set - Bossacabana
20. Street Players - Nowhere Forever
21. DJ Hot Hands - Paixao da Minha Vida
22. Sutramaka - Love at First Time
23. Novo Ritmo Sensibile - Porto
24. Stereo Deep - Cloned Soul
25. Nick Sanders - Samba De Janeiro

GTA 5 / Grand Theft Auto V [Update 2] | RePack от xatab [2015, Action, Racing, 3D]
2015-04-18 01:20
GTA 5 / Grand Theft Auto V
Год выпуска: 2015
Жанр: Action, Racing, 3D
Разработчик: Rockstar North
Издательство: Rockstar Games
Таблетка: Вшита (3DM v3)
Язык интерфейса: RUS|ENG|MULTI
Платформа: PC
Системные требования:
✔ Операционная система: 64-bit: Vista, Win 7, Win 8, Win 10
✔ Процессор: Intel Core 2 Q6600 2.40 ГГц или AMD Phenom 9850 2.5 ГГц
✔ Оперативная память: 4 гб
✔ Видеокарта: 1 Гб с поддержкой DX10 (NVIDIA 9800 GT или AMD HD 4870)
✔ Звуковая карта: Звуковое устройство, совместимое с DirectX® 9.0с
✔ Свободное место на жестком диске: 57 гб
Описание:
Лос-Сантос – город солнца, старлеток и вышедших в тираж звезд. Некогда предмет зависти всего западного мира, ныне это пристанище дрянных реалити-шоу, задыхающееся в тисках экономических проблем. В центре всей заварухи – троица совершенно разных преступников, отчаянно пытающихся ухватить удачу за хвост в непрекращающейся борьбе за место под солнцем. Бывший член уличной банды Франклин старается завязать с прошлым. Отошедший от дел грабитель банков Майкл обнаруживает, что в честной жизни все не так радужно, как представлялось. Повернутый на насилии псих Тревор перебивается от одного дельца к другому в надежде сорвать крупный куш. Исчерпав варианты, эти трое ставят на кон собственные жизни и учиняют серию дерзких ограблений, в которых – или пан, или пропал. В Grand Theft Auto V поклонников ждет не просто самый огромный и детализированный мир из когда-либо создававшихся Rockstar Games, но и возможность влиять на жизнь и поступки сразу трех главных героев. Такое переплетение историй нескольких персонажей позволит сделать игру максимально увлекательной и захватывающей. Все атрибуты знаменитой серии в полной мере присущи и Grand Theft Auto V – здесь и невероятное внимание к деталям, и фирменный черный юмор, и высмеивание поп-культуры, и даже совершенно новый, невероятно амбициозный мультиплеерный режим.
Доп. информация:
» Новое оружие, новые транспортные средства и новые дела

» Новые виды животных

» Более плотный поток машин на дорогах

» Более детализированная растительность

» Улучшенные эффекты повреждений и погодных условий, а также многое другое

Особенности репака

» Ничего не вырезано | Не перекодировано

» Установлен Update 2 (v1.0.333.1)

» Все пути реестра сохранены.

» При установке к обязательно установить Social Club (Он идет вместе с софтом репака-поставить галочку)

» Время установки 1 час 25 минут

» Repack не сильно пожат дабы не испытывать нервы у ребят и пожалеть их компьютеры.

» Сделал по многочисленным просьбам. Считайте что пиратка.

» За таблетки ответственности не несу. Проверил на Win 7 (64х)

» Repack от xatab

Установка
1. Запустить файл setup.exe
2. Установить дистрибутив игры
3. Играть


FAUST - project - Eclipse [2015 (3), Electro, MP3]
2015-04-18 01:10
FAUST - project - Eclipse
Формат: MP3, tracks, 320kbps
Год выпуска: 2015 (3)
Страна: Россия
Жанр: Electro
Продолжительность: 00:24:36
Описание:
01 Inevitability (4.41)
02 Unfavorable conclusions (4.46)
03 Eclipse (4.45)
04 Somnambulism - 2 (4.57)
05 Fratricidal war (Instrumental) (5.19)


Доп. информация: Это не новый альбом!
Это неизданное.Поскольку FAUST - project прекратил свою деятельность,мы решили выложить неизданные композиции,
написанные в период с 2014 по 2015 г.

VA - Deep Fairy Tales, Vol. 10 - Dreamesque Deep House Tunes [2015, Funky, Club House, Deep House, MP3]
2015-04-18 01:04
VA - Deep Fairy Tales, Vol. 10 - Dreamesque Deep House Tunes
Формат: MP3, tracks, 320kbps
Год выпуска: 2015
Страна: All World
Жанр: Funky, Club House, Deep House
Продолжительность: 02:43:27
Описание: 01. Cosmic Cowboys & Giorgia Angiuli - In the Dark (Acumen Remix) (06:24)
02. Ridney - It's Over (Taras Van De Voorde Remix) (08:04)
03. Nuff Said - Music Within (06:43)
04. Sek - DK's Moo Thing (--NEW--) (06:11)
05. Sandy Huner & Lauhaus - Truckin' (Agnes Remix) (06:42)
06. Ivan Masa - Deep Penetration (07:13)
07. Lurob - Twin Peaks Lounge (05:18)
08. Steve Hope - Back Days (05:55)
09. Conny Wolf - John Henry (Alexander B Remix) (07:09)
10. Ugur Project - Catchin' That Groove (07:22)
11. H.P. Vince - My Love (06:11)
12. Tali Freaks - Set the Sun (06:28)
13. Garcynoise - Not NY (Ivan Masa Remix) (07:34)
14. Jayden San - Drowning (Karter Remix) (05:29)
15. Manuel De La Mare - Very Bitch (07:29)
16. Jaques Le Noir - Telematic Love (06:30)
17. Joao Azevedo - Eject (06:18)
18. Van Czar - Jean Tonique (Ittai Barkai Remix) (06:25)
19. Blood Groove & Kikis - Deep Grain (Andrey Potyomkin Remix) (06:50)
20. Hernan Cerbello - Remembrance (06:23)
21. Alex M.I.F. - Let's Get Deep (05:43)
22. Nikolay Mikryukov - Walk in the Moonlight (08:00)
23. LCS - Keep On (06:00)
24. Komma Noise - Ganymede (05:47)
25. JESON DJ - Deep Mode (05:07)

Анатомия страсти, 11 сезон 1-16 серии / Grey's Anatomy [FoxLife] (Шонда Раймз) [2014-2015, драма, комедия, HDTVRip, P]
2015-04-18 00:55
Анатомия страсти, 11 сезон 1-16 серии / Grey's Anatomy

Перевод: Профессиональный (многоголосый, закадровый) [FoxLife], cубтитры: отсутствуют
Формат: HDTVRip, AVI, XviD, MP3
Страна: США
Режиссер: Шонда Раймз
Жанр: драма, комедия

Всего серий: 24
Продолжительность: 16 x 00:43:00
Год выпуска: 2014-2015

В ролях: Эллен Помпео, Патрик Демпси, Кэтрин Хейгл, Джастин Чэмберс, Сара Рамирез, Эрик Дэйн, Сандра О, Т.Р. Найт, Чандра Уилсон, Кайлер Ли, Джеймс Пикенс, Кевин МакКид, Мелисса Джордж, Джессика Кэпшоу

Описание: В центре событий — молодая женщина-хирург Мередит Грей, дочь известного врача Эллис Грей. Она работает в городской больнице Сиэтла, и её коллеги, такие же начинающие врачи, как она. Хирурги оперируют и влюбляются, заводят истории болезни и служебные романы, хранят свои врачебные тайны, борются с осложнениями у пациентов и в собственной личной жизни. И зачастую отношения с противоположным полом волнуют их не меньше, чем вопрос приобретения ими профессионального опыта.

Рейтинг на:


Видео: 720x400 (1.80:1), 25 fps, XviD build 62 ~1340 kbps avg, 0.19 bit/pixel
Аудио: 48 kHz, MPEG Layer 3, 2 ch, ~128.00 kbps avg


Внимание! Раздача ведётся путём добавления новых серий

Внимание! Раздача ведётся путём добавления новых серий; при каждом добавлении создаётся новый торрент. Чтобы начать докачку новой серии, пользователям необходимо сделать следующее:
(1) остановить скачивание,
(2) удалить старый торрент у себя из клиента (старые серии удалять не надо),
(3) скачать новый торрент и запустить его у себя в клиенте вместо старого, при этом указать клиенту путь в старую папку куда и должно происходить скачивание новых серий.

Ваш клиент при этом должен произвести хеширование (проверку) старой папки (если не производит сам - помогите ему сделать это), и будет докачивать только те серии которых у вас ещё нет. Старые серии при этом не удаляются, а продолжают раздаваться!

Eсли вы уже удалили старые серии, то предотвратить повторную закачку старых серий можно, отжав галочку в соответствующих местах при запуске нового торрента. По возможности, желательно не удалять старые серии как можно дольше, чтобы релизёр не столько продолжал раздавать старые серии, а смог сконцентрироваться на новых.

ВНИМАНИЕ!! Добавлена 16-я серия 18.04.15, перезакачайте торрент!!

VA - Mayday 2015 - Making Friends [2015, House, Club House, Trance, MP3]
2015-04-18 00:44
VA - Mayday 2015 - Making Friends
Формат: MP3, tracks, 320kbps
Год выпуска: 2015
Страна: All World
Жанр: House, Club House, Trance
Продолжительность: 03:48:58
Описание: 01. Friends Of Mayday - Making Friends (Original Mix) (06:07)
02. Hardwell Feat. Jonathan Mendelsohn - Echo (05:09)
03. Lost Frequencies - Are You With Me (Dimaro Remix) (04:43)
04. Dimitri Vegas & Like Mike Vs. Fedde Le Grand Feat. Julian Perretta - Tales Of Tomorrow (Extended Mix) (05:03)
05. Robin Schulz Feat. Jasmine Thompson - Sun Goes Down (Tocadisco Remix) (05:55)
06. Blasterjaxx & DBSTF Feat. Ryder - Beautiful World (Original Mix) (04:34)
07. Armin Van Buuren - Together (In A State Of Trance) [original] (05:54)
08. Tiлsto Feat. Christian Burns - In The Dark (Chadash Cort Remix) (06:02)
09. Dash Berlin & John Dahlbдck Feat. Bullysongs - Never Let You Go (Club Mix) (05:05)
10. Cosmic Gate - Yai (05:42)
11. Kцlsch Feat. Troels Abrahamsen - All That Matters (Kryder Remix) (05:33)
12. Ferry Corsten - Tonka (Original Mix) (04:57)
13. East & Young - Harpoon (Adrian Taylor Remix) (04:12)
14. Dannic & Lucky Date Feat. Harrison - Mayday (04:19)
15. Headhunterz - Once Again (Original Mix) (04:47)
16. Sam O Neall - Forever Young (04:52)
17. W&W - Rave After Rave (04:01)
18. Bassjackers & Thomas Newson - Wave Your Hands (04:08)
19. BL3R & Andres Fresko - Jumpoff (Carnage Edit) (04:53)
20. Twoloud - Right Now (05:08)
21. Caribou - Can't Do Without You (Tale Of Us & Mano Le Tough Remix) (07:38)
22. Maceo Plex - Conjure Dreams (07:22)
23. Olivier Giacomotto - Bipolar Star (07:56)
24. Alan Fitzpatrick - Turn Down The Lights (07:54)
25. Sam Paganini - Rave (06:46)
26. Deepchild - Black Jesus (Brodanse Remix) (07:57)
27. Sascha Braemer - Et Voilа (Christoph Remix) (09:05)
28. Helmut Ebritsch - Ecstatic Truth (Aka Aka & Thalstroem Remix) (08:07)
29. Breakdlaw - Paint Me Like A French Girl (Max Manie & Scheinizzl A.K.A. Maniezzl Remix) (05:39)
30. Jerome Vs. XPR - Muthafuqa (Original Mix) (05:06)
31. Nick Curly - Crossroads (07:07)
32. Oliver Schories - Remote Moment (Format:b Remix) (06:25)
33. Thomas Schumacher & Caitlin - I Won't Run (08:26)
34. Dr. Motte Meets Gabriel Le Mar - Zikade (Ken Ishii Remix) (07:14)
35. Moonbootica - Superdrive (Kruse & Nuernberg Remix) (06:54)
36. Lexer Feat. Belle Humble - Feels Like This (Alle Farben Remix) [extended Version] (07:22)
37. Monkey Safari - Cranes (Kцlsch Remix) (10:40)
38. FAUL - Something New (David K Remix) (06:27)
39. Worakls - Toi (07:10)
40. Camo & Krooked - Loving You Is Easy (03:53)
41. Zyon - No Fate (Struggle Continues Mix) (06:12)
42. Humate - Love Stimulation (Love Mix) (05:48)
43. Vernon - Wonderer (06:10)
44. Monoroom - Memory Inc., Pt. II (Gui Boratto Remix) (06:32)
45. Lexy & K-Paul - Vicious Love (05:18)
46. Moguai - Get:on (07:54)
47. Van Bellen - Let Me Take You (08:30)
48. Mellow Trax - Phuture Vibes (06:18)
49. Da Hool - Wankers On Duty (05:11)
50. Tomcraft - Prosac (09:02)
51. ATB - Let U Go (Wippenberg Remix) (06:59)
52. Armin Van Buuren - Communication (03:20)
53. Kay Cee - Escape (06:53)
54. Kai Tracid - Tiefenrausch (07:28)
55. Komakino - Man On Mars (07:07)
56. RMB - Universe Of Love (05:04)
57. Suspecious - Lovewaves (05:26)
58. Raver's Nature - Somebody Scream (05:19)
59. Meteor Seven - Signs Of Live (06:39)
60. Hardsequencer - From The Ear To The Brain (04:13)
61. DJ Mix - Mayday 2015 Continuous DJ Mix, Pt. 1 (79:43)
62. DJ Mix - Mayday 2015 Continuous DJ Mix, Pt. 2 (79:49)
63. DJ Mix - Mayday 2015 Continuous DJ Mix, Pt. 3 (78:56)

Подборка обоев на тему "Природа" Full HD - 1920х1080 - 317шт. [2015, Обои] [2015, Обои]
2015-04-17 23:04
Подборка обоев на тему "Природа" Full HD - 1920х1080 - 317шт. [2015, Обои]

Подборка обоев на тему "Природа" Full HD - 1920х1080 - 317шт.
Год выпуска: 2015
Жанр: Обои
Количество файлов: 317
Разрешение: 1920x1080
Формат: JPG
Описание: Подборка Full HD обоев для рабочего стола на тему природы.

Примеры:

(Tech House / Techno / Minimal) Femme En Fourrure – Дискография: 4 релиза + ремиксография - 2009-2010, MP3 (tracks), 320 kbps [2009-2010, Tech House / Techno / Minimal, MP3]
2015-04-17 23:00
(Tech House / Techno / Minimal) Femme En Fourrure – Дискография: 4 релиза + ремиксография - 2009-2010, MP3 (tracks), 320 kbps
Формат: MP3, tracks, 320kbps
Год выпуска: 2009-2010
Страна: Финляндия
Жанр: Tech House / Techno / Minimal
Продолжительность: 02:08
Описание: (Tech House / Techno / Minimal) Femme En Fourrure – Дискография: 4 релиза + ремиксография - 2009-2010, MP3 (tracks), 320 kbps
Формат: MP3, tracks, 320kbps
Год выпуска: 2009-2010
Страна: Финляндия
Жанр: Tech House / Techno / Minimal
Продолжительность: 02:08
Описание:

2009 - Pull Out EP (UK WEB - DKR010 - 320 kbps)
Femme En Fourrure - Dirty Blonde II EP

Лейбл: Discobelle Records
Номер по каталогу: DBR005
Формат: WEB
Страна: SE
Выпущено: 2010-07-15

01. Banana (Original Mix) (7:30)
02. Dirty Blonde (Marcus Price Remix) (4:00)
03. Dirty Blonde (French Fries & Manare Remix) (5:50)
04. Dirty Blonde (Raziek Remix) (5:19)
05. Dirty Blonde (Myd Remix) (6:10)
06. Dirty Blonde (Madkids Dub Mix) (6:40)
07. Dirty Blonde (Lazaro Casanova Rhodes Mix) (7:19)

2010 - Plump Bisquit EP (FI WEB - TBMP3006 - 320 kbps)
Femme En Fourrure - Plump Bisquit EP

Лейбл: Top Billin
Номер по каталогу: TBMP3006
Формат: WEB
Страна: FI
Выпущено: 2010-02-05

01. Plump Bisquit (Original Mix) (7:00)
02. Plump Bisquit (Sharkslayer Demon Dub Mix) (6:18)

2010 - Dirty Blonde EP (SE WEB - DBR003 - 320 kbps)
Лейбл: Discobelle Records
Номер по каталогу: DBR003
Формат: WEB
Страна: SE
Выпущено: 2010-05-07

01. Dirty Blonde (Original Mix) (6:39)
02. Dirty Blonde (Drop The Lime Remix) (5:08)
03. Dirty Blonde (Malente & Dex Remix) (5:14)
04. Dirty Blonde (Madkids Remix) (6:37)

2010 - Dirty Blonde II EP (SE WEB - DBR005 - 320 kbps)
Femme En Fourrure - Dirty Blonde II EP

Лейбл: Discobelle Records
Номер по каталогу: DBR005
Формат: WEB
Страна: SE
Выпущено: 2010-07-15

01. Banana (Original Mix) (7:30)
02. Dirty Blonde (Marcus Price Remix) (4:00)
03. Dirty Blonde (French Fries & Manare Remix) (5:50)
04. Dirty Blonde (Raziek Remix) (5:19)
05. Dirty Blonde (Myd Remix) (6:10)
06. Dirty Blonde (Madkids Dub Mix) (6:40)
07. Dirty Blonde (Lazaro Casanova Rhodes Mix) (7:19)

Remixes
Edu K - Jumpin' n' Pumpin' (Femme En Fourrure Remix) (5:44)
Jamtech Foundation - Too Fast (Femme En Fourrure Remix) (5:52)
Myd - Train To Bamako (Femme En Fourrure Remix) (6:18)
Sekta Feat. Spoek Mathambo - Jabajaws (Femme En Fourrure Dub) (6:27)
Zebra & Snake - Weaker Arm (Femme En Fourrure Remix) (6:21)

Салем, 2 сезон 1-2 серия из 13 / Salem [AlexFilm] (Ричард Шепард) [2015, фэнтези, триллер, драма, WEB-DL 720р, P]
2015-04-17 22:59
Салем, 2 сезон 1-2 серия из 13 / Salem
Перевод: Профессиональный (многоголосый, закадровый) [AlexFilm]
Субтитры: отсутствуют
Формат: WEB-DL 720p, MKV, H.264, AC3
Страна: США
Режиссер: Ричард Шепард
Жанр: фэнтези, триллер, драма
Всего серий: 13
Продолжительность: 2 x ~ 00:50:00
Год выпуска: 2015
В ролях: Шэйн Уэст, Джанет Монтгомери, Эжур Дэун, Моргана Шоу, Сет Гейбл, Ксандер Беркли, Эшли Мадекве, Элиз Эберли, Джон Артур, Кристофер Берри, Люси Лоулесс, Стюарт Таунсенд, Джо Дойл

Описание: Сюжет сериала закручен вокруг отважного ветерана войны, который возвращается с полей сражений в родной Салем. Добравшись до родных мест, мужчина обнаруживает, что все местное население охвачено безумием охоты на «ведьм».

Рейтинг:


Видео: 1280x720 (16:9), 23.976 fps, AVC (х264), High@L3.1, ~ 3 817kbps avg, 0.173 bit/pixel
Аудио #1: Русский 48.0 kHz, AC3, (Front: L C R, Side: L R, LFE) , 6 ch 384Kbps avg Профессиональный (многоголосый, закадровый)
Аудио #2: Английский 48.0 kHz, AC3, (Front: L C R, Side: L R, LFE) , 6 ch 384Kbps avg Оригинал

Релиз:


MediaInfo
General
Unique ID : 193209140408487902009373547764374988992 (0x915ABA1664D0F457AB3462A9BB7A68C0)
Complete name : E:\DOWNLOADS\Salem.S02.WEB-DLRip.720p.AlexFilm\Salem.s02e01.WEB-DL.720p.Rus.Eng.AlexFilm.mkv
Format : Matroska
Format version : Version 4 / Version 2
File size : 1.64 GiB
Duration : 50mn 14s
Overall bit rate : 4 678 Kbps
Movie name : Salem 2x01 @ AlexFilm
Encoded date : UTC 2015-04-06 21:02:29
Writing application : mkvmerge v7.1.0 ('Good Love') 64bit built on Jul 27 2014 13:06:55
Writing library : libebml v1.3.0 + libmatroska v1.4.1
DURATION : 00:50:14.400000000
NUMBER_OF_FRAMES : 94200
NUMBER_OF_BYTES : 144691200
_STATISTICS_WRITING_APP : mkvmerge v7.1.0 ('Good Love') 64bit built on Jul 27 2014 13:06:55
_STATISTICS_WRITING_DATE_UT : 2015-04-06 21:02:29
_STATISTICS_TAGS : BPS DURATION NUMBER_OF_FRAMES NUMBER_OF_BYTES

Video
ID : 1
Format : AVC
Format/Info : Advanced Video Codec
Format profile : High@L3.1
Format settings, CABAC : No
Format settings, ReFrames : 2 frames
Codec ID : V_MPEG4/ISO/AVC
Duration : 50mn 14s
Bit rate : 3 817 Kbps
Width : 1 280 pixels
Height : 720 pixels
Display aspect ratio : 16:9
Frame rate mode : Constant
Frame rate : 23.976 fps
Color space : YUV
Chroma subsampling : 4:2:0
Bit depth : 8 bits
Scan type : Progressive
Bits/(Pixel*Frame) : 0.173
Stream size : 1.34 GiB (82%)
Language : English
Default : Yes
Forced : No
Color primaries : BT.709
Transfer characteristics : BT.709
Matrix coefficients : BT.709
Color range : Limited

Audio #1
ID : 2
Format : AC-3
Format/Info : Audio Coding 3
Mode extension : CM (complete main)
Format settings, Endianness : Big
Codec ID : A_AC3
Duration : 50mn 14s
Bit rate mode : Constant
Bit rate : 384 Kbps
Channel(s) : 6 channels
Channel positions : Front: L C R, Side: L R, LFE
Sampling rate : 48.0 KHz
Bit depth : 16 bits
Compression mode : Lossy
Stream size : 138 MiB (8%)
Title : DD5.1 AlexFilm
Language : Russian
Default : Yes
Forced : No

Audio #2
ID : 3
Format : AC-3
Format/Info : Audio Coding 3
Mode extension : CM (complete main)
Format settings, Endianness : Big
Codec ID : A_AC3
Duration : 50mn 14s
Bit rate mode : Constant
Bit rate : 384 Kbps
Channel(s) : 6 channels
Channel positions : Front: L C R, Side: L R, LFE
Sampling rate : 48.0 KHz
Bit depth : 16 bits
Compression mode : Lossy
Stream size : 138 MiB (8%)
Title : DD5.1 Original
Language : English
Default : No
Forced : No
Внимание! Раздача ведётся путём добавления новых серий
Внимание! Раздача ведётся путём добавления новых серий; при каждом добавлении создётся новый торрент. Чтобы начать докачку новой серии, пользователям необходимо сделать следующее:
(1) остановить скачивание,
(2) удалить старый торрент у себя из клиента (старые серии удалять не надо),
(3) скачать новый торрент и запустить его у себя в клиенте вместо старого, при этом указать клиенту путь в старую папку куда и должно происходить скачивание новых серий.

Ваш клиент при этом должен произвести хеширование (проверку) старой папки (если не производит сам - помогите ему сделать это), и будет докачивать только те серии которых у вас ещё нет. Старые серии при этом не удаляются, а продолжают раздаваться!

Eсли вы уже удалили старые серии, то предотвратить повторную закачку старых серий можно, отжав галочку в соответсвующих местах при запуске нового торрента. По возможности, желательно не удалять старые серии как можно дольше чтобы релизёр не столько продолжал раздавать старые серии, а смог сконцентрироваться на новых.

Американцы, 3 сезон 1-12 серии из 13 / The Americans [NewStudio] (Адам Аркин, Гэвин О’Коннор, Томас Шламми) [2015, боевик, триллер, драма, криминал, детектив, WEB-DL 1080p, Р]
2015-04-17 22:54
Американцы / The Americans


Слоган «All's fair in love and cold war»
3 сезон (1-12 серии из 13)
Перевод: Профессиональный многоголосый [NewStudio]
Субтитры: отсутствуют
Формат: WEB-DL, MKV, H.264, AC3
Страна: США, DreamWorks Television
Режиссер: Адам Аркин, Гэвин О’Коннор, Томас Шламми
Жанр: боевик, триллер, драма, криминал, детектив
Всего серий: 13
Продолжительность: 12 x ~ 00:50:00
Год выпуска: 2015

В ролях: Кери Рассел (Elizabeth Jennings), Мэттью Риз (Phillip Jennings), Кейдрич Селлати (Henry Jennings), Холли Тейлор (Paige Jennings), Ноа Эммерик (Stan Beeman), Ричард Томас (Frank Gaad), Аннет Махендру (Nina), Сьюзэн Миснер (Sandra Beeman), Максимилиано Эрнандез (Chris Amador), Элисон Райт (Martha Hanson), Марго Мартиндейл (Claudia), Лев Горн (Arkady Ivanovich)


Описание: История о сложном браке двух агентов КГБ, которые под видом американцев заселяются в пригород Вашингтона сразу после того, как президентом избирают Рейгана. Подставной брак Филлипа и Элизабет с каждым днем становится все более настоящим и эмоциональным, несмотря на эскалацию холодной войны и опасные отношения, которые они должны поддерживать с сетью шпионов и информаторов. Напряжение нарастает, когда появляется новый сосед Стэн, агент ФБР, который работает в контрразведке.

Рейтинг:


Релиз:
Озвучка: Владимир Курдов, Анна Тух, Константин Погодаев
Перевод: weirdie


Видео: 1920x1080 (1.77:1), 23,976 fps, AVC (x264), High@L4.0 ~4876 kbps avg, 0.098 bit/pixel.
Аудио RUS: 48 kHz, AC3 Dolby Digital, 3/2 (L, C, R, l, r) + LFE ch, ~384 kbps.
Аудио ENG: 48 kHz, AC3 Dolby Digital, 3/2 (L, C, R, l, r) + LFE ch, ~384 kbps.

MediaInfo
    Формат : Matroska
    Версия формата : Version 2
    Размер файла : 1,97 Гбайт
    Продолжительность : 48 м.
    Общий поток : 5759 Кбит/сек
    Дата кодирования : UTC 2015-01-29 17:38:34
    Программа кодирования : mkvmerge v2.9.9 ('Tutu') built on Nov 25 2009 21:13:32
    Библиотека кодирования : libebml v0.7.9 + libmatroska v0.8.1

    Видео
    Идентификатор : 1
    Формат : AVC
    Формат/Информация : Advanced Video Codec
    Профиль формата : High@L4.0
    Параметр CABAC формата : Да
    Параметр ReFrames формата : 4 кадра
    Идентификатор кодека : V_MPEG4/ISO/AVC
    Продолжительность : 48 м.
    Битрейт : 4876 Кбит/сек
    Ширина : 1920 пикселей
    Высота : 1080 пикселей
    Соотношение сторон : 16:9
    Режим частоты кадров : Постоянный
    Частота кадров : 23,976 кадра/сек
    Цветовое пространство : YUV
    Субдискретизация насыщенности : 4:2:0
    Битовая глубина : 8 бит
    Тип развёртки : Прогрессивная
    Бит/(Пиксели*Кадры) : 0.098
    Размер потока : 1,67 Гбайт (85%)
    Язык : English
    Default : Нет
    Forced : Нет
    Основные цвета : BT.709
    Характеристики трансфера : BT.709
    Коэффициенты матрицы : BT.709

    Аудио #1
    Идентификатор : 2
    Формат : AC-3
    Формат/Информация : Audio Coding 3
    Расширение режима : CM (complete main)
    Параметр Endianness формата : Big
    Идентификатор кодека : A_AC3
    Продолжительность : 48 м.
    Вид битрейта : Постоянный
    Битрейт : 384 Кбит/сек
    Каналы : 6 каналов
    Расположение каналов : Front: L C R, Side: L R, LFE
    Частота : 48,0 КГц
    Битовая глубина : 16 бит
    Метод сжатия : С потерями
    Размер потока : 135 Мбайт (7%)
    Язык : Russian
    Default : Да
    Forced : Да

    Аудио #2
    Идентификатор : 3
    Формат : AC-3
    Формат/Информация : Audio Coding 3
    Расширение режима : CM (complete main)
    Параметр Endianness формата : Big
    Идентификатор кодека : A_AC3
    Продолжительность : 48 м.
    Вид битрейта : Постоянный
    Битрейт : 384 Кбит/сек
    Каналы : 6 каналов
    Расположение каналов : Front: L C R, Side: L R, LFE
    Частота : 48,0 КГц
    Битовая глубина : 16 бит
    Метод сжатия : С потерями
    Размер потока : 135 Мбайт (7%)
    Язык : English
    Default : Нет
    Forced : Нет
Список серий
  • 01. Семинар Эрхарда / EST Men
  • 02. Багаж / Baggage
  • 03. Дом на продажу / Open House
  • 04. Травы на десятку / Dimebag
  • 05. Перевал Саланг / Salang Pass
  • 06. Заново рождённая / Born Again
  • 07. Уолтер Таффет / Walter Taffet
  • 08. Разоблачение / Divestment
  • 09. Мечтают ли почтовые роботы об электроовцах? / Do Mail Robots Dream of Electric Sheep?
  • 10. Осы / Stingers
  • 11. Один день из жизни Антона Бакланова / One Day in the Life of Anton Baklanov
  • 12. Я Абассин Задран / I Am Abassin Zadran
Внимание! Раздача ведётся путём добавления новых серий !!!
Внимание! Раздача ведётся путём добавления новых серий; при каждом добавлении создаётся новый торрент. Чтобы начать докачку новой серии, пользователям необходимо сделать следующее:
(1) остановить скачивание, раздачу,
(2) удалить старый торрент у себя из клиента (старые серии удалять не надо),
(3) скачать новый торрент и запустить его у себя в клиенте вместо старого, при этом указать клиенту путь в старую папку куда и должно происходить скачивание новых серий.
Ваш клиент при этом должен произвести хеширование (проверку) старой папки (если не производит сами - помогите ему сделать это), и будет докачивать только те серии которых у вас ещё нет. Старые серии при этом не удаляются, а продолжают раздаваться!
Eсли вы уже удалили старые серии, то предотвратить повторную закачку старых серий можно, отжав галочку в соответствующих местах при запуске нового торрента. По возможности, желательно не удалять старые серии как можно дольше чтобы релизёр не столько продолжал раздавать старые серии, а смог сконцентрироваться на новых.

Салем, 2 сезон 1-2 серия из 13 / Salem [LostFilm / NewStudio / AlexFilm] (Ричард Шепард) [2015, фэнтези, триллер, драма, WEB-DL 1080р, 3P]
2015-04-17 22:51
Салем, 2 сезон 1-2 серия из 13 / Salem
Перевод:

  • Профессиональный (многоголосый, закадровый) [LostFilm]
  • Профессиональный (многоголосый, закадровый) [NewStudio]
  • Профессиональный (многоголосый, закадровый) [AlexFilm]

Субтитры: отсутствуют
Формат: WEB-DL 720p, MKV, H.264, AC3
Страна: США
Режиссер: Ричард Шепард
Жанр: фэнтези, триллер, драма
Всего серий: 13
Продолжительность: 2 x ~ 00:50:00
Год выпуска: 2015
В ролях: Шэйн Уэст, Джанет Монтгомери, Эжур Дэун, Моргана Шоу, Сет Гейбл, Ксандер Беркли, Эшли Мадекве, Элиз Эберли, Джон Артур, Кристофер Берри, Люси Лоулесс, Стюарт Таунсенд, Джо Дойл

Описание: Сюжет сериала закручен вокруг отважного ветерана войны, который возвращается с полей сражений в родной Салем. Добравшись до родных мест, мужчина обнаруживает, что все местное население охвачено безумием охоты на «ведьм».

Рейтинг:


Видео: 1920x1080р (16:9), 23.976 fps, AVC (х264), High@L4.0 , ~ 5 077kbps avg, 0.102 bit/pixel
Аудио #1: Русский 48.0 kHz, AC3, (Front: L C R, Side: L R, LFE) , 6 ch 384Kbps avg Профессиональный (многоголосый, закадровый) LostFilm
Аудио #2: Русский 48.0 kHz, AC3, (Front: L C R, Side: L R, LFE) , 6 ch 384Kbps avg Профессиональный (многоголосый, закадровый) NewStudio
Аудио #3: Русский 48.0 kHz, AC3, (Front: L C R, Side: L R, LFE) , 6 ch 384Kbps avg Профессиональный (многоголосый, закадровый) AlexFilm
Аудио #4: Английский 48.0 kHz, AC3, (Front: L C R, Side: L R, LFE) , 6 ch 384Kbps avg Оригинал

MediaInfo
General
Unique ID : 205231050914680550460380328162900968217 (0x9A661009AA0B118384F3029E833A0319)
Complete name : E:\DOWNLOADS\Salem.S02.1080p.L.N.A\Salem.s02e01.1080p.WEB-DL.3xRus.Eng.mkv
Format : Matroska
Format version : Version 4 / Version 2
File size : 2.37 GiB
Duration : 50mn 14s
Overall bit rate : 6 748 Kbps
Encoded date : UTC 2015-04-08 06:26:19
Writing application : mkvmerge v7.8.0 ('River Man') 64bit built on Mar 27 2015 16:31:37
Writing library : libebml v1.3.1 + libmatroska v1.4.2
DURATION : 00:50:14.400000000
NUMBER_OF_FRAMES : 94200
NUMBER_OF_BYTES : 144691200
_STATISTICS_WRITING_APP : mkvmerge v7.8.0 ('River Man') 64bit built on Mar 27 2015 16:31:37
_STATISTICS_WRITING_DATE_UT : 2015-04-08 06:26:19
_STATISTICS_TAGS : BPS DURATION NUMBER_OF_FRAMES NUMBER_OF_BYTES

Video
ID : 1
Format : AVC
Format/Info : Advanced Video Codec
Format profile : High@L4.0
Format settings, CABAC : Yes
Format settings, ReFrames : 4 frames
Codec ID : V_MPEG4/ISO/AVC
Duration : 50mn 14s
Bit rate : 5 077 Kbps
Width : 1 920 pixels
Height : 1 080 pixels
Display aspect ratio : 16:9
Frame rate mode : Constant
Frame rate : 23.976 fps
Color space : YUV
Chroma subsampling : 4:2:0
Bit depth : 8 bits
Scan type : Progressive
Bits/(Pixel*Frame) : 0.102
Stream size : 1.78 GiB (75%)
Language : English
Default : No
Forced : No
Color primaries : BT.709
Transfer characteristics : BT.709
Matrix coefficients : BT.709
Color range : Limited

Audio #1
ID : 2
Format : AC-3
Format/Info : Audio Coding 3
Mode extension : CM (complete main)
Format settings, Endianness : Big
Codec ID : A_AC3
Duration : 50mn 14s
Bit rate mode : Constant
Bit rate : 384 Kbps
Channel(s) : 6 channels
Channel positions : Front: L C R, Side: L R, LFE
Sampling rate : 48.0 KHz
Bit depth : 16 bits
Compression mode : Lossy
Stream size : 138 MiB (6%)
Title : LostFilm 5.1
Language : Russian
Default : Yes
Forced : No

Audio #2
ID : 3
Format : AC-3
Format/Info : Audio Coding 3
Mode extension : CM (complete main)
Format settings, Endianness : Big
Codec ID : A_AC3
Duration : 50mn 14s
Bit rate mode : Constant
Bit rate : 384 Kbps
Channel(s) : 6 channels
Channel positions : Front: L C R, Side: L R, LFE
Sampling rate : 48.0 KHz
Bit depth : 16 bits
Compression mode : Lossy
Stream size : 138 MiB (6%)
Title : NewStudio 5.1
Language : Russian
Default : No
Forced : No

Audio #3
ID : 4
Format : AC-3
Format/Info : Audio Coding 3
Mode extension : CM (complete main)
Format settings, Endianness : Big
Codec ID : A_AC3
Duration : 50mn 14s
Bit rate mode : Constant
Bit rate : 384 Kbps
Channel(s) : 6 channels
Channel positions : Front: L C R, Side: L R, LFE
Sampling rate : 48.0 KHz
Bit depth : 16 bits
Compression mode : Lossy
Stream size : 138 MiB (6%)
Title : AlexFilm 5.1
Language : Russian
Default : No
Forced : No

Audio #4
ID : 5
Format : AC-3
Format/Info : Audio Coding 3
Mode extension : CM (complete main)
Format settings, Endianness : Big
Codec ID : A_AC3
Duration : 50mn 14s
Bit rate mode : Constant
Bit rate : 384 Kbps
Channel(s) : 6 channels
Channel positions : Front: L C R, Side: L R, LFE
Sampling rate : 48.0 KHz
Bit depth : 16 bits
Compression mode : Lossy
Stream size : 138 MiB (6%)
Title : original
Language : English
Default : No
Forced : No
Внимание! Раздача ведётся путём добавления новых серий
Внимание! Раздача ведётся путём добавления новых серий; при каждом добавлении создётся новый торрент. Чтобы начать докачку новой серии, пользователям необходимо сделать следующее:
(1) остановить скачивание,
(2) удалить старый торрент у себя из клиента (старые серии удалять не надо),
(3) скачать новый торрент и запустить его у себя в клиенте вместо старого, при этом указать клиенту путь в старую папку куда и должно происходить скачивание новых серий.

Ваш клиент при этом должен произвести хеширование (проверку) старой папки (если не производит сам - помогите ему сделать это), и будет докачивать только те серии которых у вас ещё нет. Старые серии при этом не удаляются, а продолжают раздаваться!

Eсли вы уже удалили старые серии, то предотвратить повторную закачку старых серий можно, отжав галочку в соответсвующих местах при запуске нового торрента. По возможности, желательно не удалять старые серии как можно дольше чтобы релизёр не столько продолжал раздавать старые серии, а смог сконцентрироваться на новых.

Peter Arcade - Reflections [2007, Italodisco, MP3]
2015-04-17 22:50
Peter Arcade - Reflections
Формат: MP3, tracks, 320kbps
Год выпуска: 2007
Страна: Италия
Жанр: Italodisco
Продолжительность: 01:50:06
Описание:
01. Rainfall Memories (Evolution Version)
02. We Were (Dance Version)
03. Into Marta's Eyes (Evolution Version)
04. Sun Will Shine (Evolution Version)
05. Optical Illusions (Evolution Version)
06. Asian Girl (Evolution Version)
07. Bodies (Evolution Version)
08. The Concert (Unique Version)
09. Into Marta's Eyes (Nextanimal's Future Disco Mix)
10. Into Marta's Eyes (Bachata Version)
11. Asian Girl (Dance Mix)
12. Into Marta's Eyes (Roman Empire Mix)
13. Into Marta's Eyes (Club Mix)
14. Rainfall Memories (Remix)
15. We Were (Radio Edit)
16. Into Marta's Eyes (Flashback Version)
17. Sun Will Shine (New Mix)
18. Optical Illusions (Flashback Version)
19. Asian Girl (Oriental Mix)
20. Bodies (Flashback Version)
21. We Were (Christmas Mix)

(Tech House / Techno / Minimal) Femme En Fourrure – Дискография: 4 релиза + ремиксография - 2009-2010, MP3 (tracks), 320 kbps [2009-2010, Tech House / Techno / Minimal, MP3]
2015-04-17 22:48
(Tech House / Techno / Minimal) Femme En Fourrure – Дискография: 4 релиза + ремиксография - 2009-2010, MP3 (tracks), 320 kbps
Формат: MP3, tracks, 320kbps
Год выпуска: 2009-2010
Страна: Финляндия
Жанр: Tech House / Techno / Minimal
Продолжительность: 02:08
Описание:

2009 - Pull Out EP (UK WEB - DKR010 - 320 kbps)
Femme En Fourrure - Dirty Blonde II EP

Лейбл: Discobelle Records
Номер по каталогу: DBR005
Формат: WEB
Страна: SE
Выпущено: 2010-07-15

01. Banana (Original Mix) (7:30)
02. Dirty Blonde (Marcus Price Remix) (4:00)
03. Dirty Blonde (French Fries & Manare Remix) (5:50)
04. Dirty Blonde (Raziek Remix) (5:19)
05. Dirty Blonde (Myd Remix) (6:10)
06. Dirty Blonde (Madkids Dub Mix) (6:40)
07. Dirty Blonde (Lazaro Casanova Rhodes Mix) (7:19)

2010 - Plump Bisquit EP (FI WEB - TBMP3006 - 320 kbps)
Femme En Fourrure - Plump Bisquit EP

Лейбл: Top Billin
Номер по каталогу: TBMP3006
Формат: WEB
Страна: FI
Выпущено: 2010-02-05

01. Plump Bisquit (Original Mix) (7:00)
02. Plump Bisquit (Sharkslayer Demon Dub Mix) (6:18)

2010 - Dirty Blonde EP (SE WEB - DBR003 - 320 kbps)
Лейбл: Discobelle Records
Номер по каталогу: DBR003
Формат: WEB
Страна: SE
Выпущено: 2010-05-07

01. Dirty Blonde (Original Mix) (6:39)
02. Dirty Blonde (Drop The Lime Remix) (5:08)
03. Dirty Blonde (Malente & Dex Remix) (5:14)
04. Dirty Blonde (Madkids Remix) (6:37)

2010 - Dirty Blonde II EP (SE WEB - DBR005 - 320 kbps)
Femme En Fourrure - Dirty Blonde II EP

Лейбл: Discobelle Records
Номер по каталогу: DBR005
Формат: WEB
Страна: SE
Выпущено: 2010-07-15

01. Banana (Original Mix) (7:30)
02. Dirty Blonde (Marcus Price Remix) (4:00)
03. Dirty Blonde (French Fries & Manare Remix) (5:50)
04. Dirty Blonde (Raziek Remix) (5:19)
05. Dirty Blonde (Myd Remix) (6:10)
06. Dirty Blonde (Madkids Dub Mix) (6:40)
07. Dirty Blonde (Lazaro Casanova Rhodes Mix) (7:19)

Remixes
Edu K - Jumpin' n' Pumpin' (Femme En Fourrure Remix) (5:44)
Jamtech Foundation - Too Fast (Femme En Fourrure Remix) (5:52)
Myd - Train To Bamako (Femme En Fourrure Remix) (6:18)
Sekta Feat. Spoek Mathambo - Jabajaws (Femme En Fourrure Dub) (6:27)
Zebra & Snake - Weaker Arm (Femme En Fourrure Remix) (6:21)