Последние новости

Symbolic - Omnidescent [2014, Melodic Death Metal, MP3]
2014-10-31 04:57
Symbolic - Omnidescent



Формат: MP3, tracks, 320kbps
Год выпуска: 2014
Страна: Germany
Жанр: Melodic Death Metal
Продолжительность: 00:47:55
Описание:

01. 101 (04:06)
02. New Horizon (04:29)
03. Numbers (06:03)
04. Abomination (05:07)
05. Complex Shores (04:43)
06. Perpetuum Mobile (05:42)
07. Soulout (04:10)
08. Guide Through Pain (04:51)
09. Absolution (05:51)
10. Omnidescent (02:49)


Доп. информация:

Sebastian Kister - Bass
See also: ex-Age of Carnage, ex-Gatecrusher, ex-Plague Bearer, ex-Rotting Empire, ex-Arkesilas
Tobias Schill - Drums
Stefan Pfaffel - Guitars
Andreas Schiegl - Guitars
Bastian Löser - Vocals

FireWolfe - We Rule The Night [2014, Melodic Heavy Metal, MP3]
2014-10-31 04:52
FireWolfe - We Rule The Night



Формат: MP3, tracks, 320kbps
Год выпуска: 2014
Страна: U.S.A.
Жанр: Melodic Heavy Metal
Продолжительность: 00:46:00
Описание:

01. We Rule The Night
02. The Devil's Music
03. Late Last Night
04. A Senator's Gun
05. Long Road Home
06. Who's Gonna Love You?
07. Ready To Roll
08. Betrayal's Kiss
09. Luck Of The Draw
10. Dream Child


Доп. информация:

David Fefolt - Vocals (Fifth Angel, Forgotten Realm, ex-Hawk, ex-Valhalla, ex-Angels of Babylon, ex-Masi)
Nick Layton - Guitars (Nick Layton)
Bobby Fercovich - Bass (Pamela Moore Band, Presto Ballet, John Jaunese, Powertrain, Ultrastone, ex-Heir Apparent)
Jay Schellen - Drums (ex-Sircle of Silence, Unruly Child, ex-Stream, ex-Asia, ex-Circa, ex-Conspiracy, ex-Hurricane, ex-Stone Fury, ex-World Trade)

Григopий Р. / Рacпутин (1-8 серии из 8) (Андрей Мaлюкoв) [2014, драма, исторический, HDTV 1080p]
2014-10-31 04:46
Григopий Р. / Рacпутин (1-8 серии из 8)
Перевод: Не требуется, cубтитры: отсутствуют
Формат: HDTV, TS, H.264, AC3
Страна: Россия, Марс Медиа Энтертейнмент
Режиссер: Андрей Мaлюкoв
Жанр: драма, исторический
Всего серий: 8
Продолжительность: 8 х ~0:48:00
Год выпуска: 2014

В ролях: Владимир Машков, Андрей Смоляков, Екатерина Климова, Ингеборга Дапкунайте, Валерий Дегтярь, Никита Ефремов, Владимир Кошевой, Борис Каморзин, Таисия Вилкова, Михаил Елисеев, Анна Дюкова, Сергей Угрюмов, Леонид Мозговой, Петар Зекавица, Мария Бурляева, Наталья Суркова, Константин Воробьёв, Юрий Орлов (II), Юрий Ицков, Игорь Лепихин, Виталий Кищенко, Илья Шакунов, Андрей Зибров, Алексей Морозов (II), Юрий Чурсин, Саша Дробитько, Стефан Отто, Роман Агеев, Андрей Полищук, Паулина Андреева, Анастасия Микульчина, Алиса Горшкова, Серафима Низовская

Описание: Каким образом неграмотный сибирский крестьянин смог стать вторым я последней русской императрицы? Неужели дело только в том, что он спасал больного наследника престола, или была иная причина удивительной веры царской семьи в этого человека? Григория Распутина убили в декабре 1916 года, а в феврале 1917-го в России рухнуло самодержавие. По указу Временного правительства создается государственная комиссия по расследованию убийства. Следователь Генрих Николаевич Свиттен допрашивает более 150 человек, проходящих свидетелями по этому делу. Он по крупицам собирает не только информацию о той страшной ночи, но и факты из жизни старца, отсеивая при этом слухи и домыслы о его деяниях, чтобы попытаться сложить реальную картину, кем же на самом деле был могущественный временщик Григорий Ефимович Распутин.



Видео: 1920x1080 (16:9), 25 fps, AVC MPEG-4 (x264), High@L4.0 ~ 10300 kbps avg, 0.199 bit/pixel
Аудио: 48 kHz, AC3 Dolby Digital, 6/0 (L C R, L R, LFE) ch, ~384 kbps

MediaInfo
Общее
Полное имя : D:\Запись\Grigorij.R.HDTV(1080i).MediaClub\Grigorij.R.01.HDTV(1080i).MediaClub.ts
Формат : MPEG-TS
Размер файла : 3,74 Гбайт
Продолжительность : 47 м.
Режим общего битрейта : Переменный
Общий поток : 11,2 Мбит/сек

Видео
Идентификатор : 5481 (0x1569)
Идентификатор меню : 1 (0x1)
Формат : AVC
Формат/Информация : Advanced Video Codec
Профиль формата : High@L4.0
Параметр CABAC формата : Да
Параметр ReFrames формата : 3 кадра
Идентификатор кодека : 27
Продолжительность : 47 м.
Битрейт : 10,3 Мбит/сек
Ширина : 1920 пикселей
Высота : 1080 пикселей
Соотношение сторон : 16:9
Частота кадров : 25,000 кадров/сек
Стандарт вещания : Component
Цветовое пространство : YUV
Субдискретизация насыщенности : 4:2:0
Битовая глубина : 8 бит
Тип развёртки : Чересстрочная
Порядок развёртки : Верхнее поле первое
Бит/(Пиксели*Кадры) : 0.199
Размер потока : 3,43 Гбайт (92%)
Основные цвета : BT.709
Характеристики трансфера : BT.709
Коэффициенты матрицы : BT.709

Аудио
Идентификатор : 5485 (0x156D)
Идентификатор меню : 1 (0x1)
Формат : AC-3
Формат/Информация : Audio Coding 3
Расширение режима : CM (complete main)
Параметр Endianness формата : Big
Идентификатор кодека : 6
Продолжительность : 47 м.
Вид битрейта : Постоянный
Битрейт : 384 Кбит/сек
Каналы : 6 каналов
Расположение каналов : Front: L C R, Side: L R, LFE
Частота : 48,0 КГц
Битовая глубина : 16 бит
Метод сжатия : С потерями
Размер потока : 131 Мбайт (3%)
Язык : Russian

Voices Of Destiny - Crisis Cult [2014, Symphonic Power Metal, Heavy Metal, MP3]
2014-10-31 04:44
Voices Of Destiny - Crisis Cult



Формат: MP3, tracks, 320kbps
Год выпуска: 2014
Страна: Germany
Жанр: Symphonic Power Metal, Heavy Metal

Продолжительность: 00:44:52
Описание:


01. Intro
02. Wolfpack
03. The Easy Prey
04. To The Slaughter
05. 21 Heroes
06. At The Edge (Feat. Manuela Kraller)
07. Stormcrow
08. Under Control
09. The Great Hunt


Доп. информация:

Jens Hartwig - Bass (2004-present)
Christopher Gutjahr - Guitars (2004-present)
Lukas Palme - Keyboards, Vocals (2004-present)
Klaus Ackermann - Drums (2012-present)
Ada Flechtner - Vocals (2013-present)
See also: ex-Coronatus


Samson - Don't Get Mad - Get Even [1997, Hard Rock, MP3]
2014-10-31 04:37
Samson - Don't Get Mad - Get Even
Формат: MP3, tracks, 320kbps
Год выпуска: 1997
Страна: UK
Жанр: Hard Rock
Продолжительность: 01:17:11
Описание:

01. Are You Ready
02. Love Hungry
03. Burning Up
04. The Fight Goes On
05. Don't Get Mad - Get Even
06. Into The Valley
07. Bite On The Bullet
08. Doctor Ice
09. Front Page News
10. Leaving Love (Behind)
BONUS TRACKS:
11. Front Page News
12. La Grange (Studio Jam)
13. Riding With The Angels
14. Vice Versa
15. Walking Out On You
16. Bright Lights


Доп. информация: Альбом 1984 г. с бонусами.

Рип Lossless

Gregorian - Winter Chants (Deluxe Edition) [2014, New Age, MP3]
2014-10-31 04:36
Gregorian - Winter Chants (Deluxe Edition)



Формат: MP3, tracks, 320kbps
Год выпуска: 2014
Страна: Germany
Жанр: New Age
Продолжительность: 01:01:37
Описание:

01. Have Yourself A Merry Little Christmas
02. Jubilee (feat. Abbey)
03. Dancing In The Snow
04. Jesu Joy Of Man's Desiring (feat. Narcis)
05. O Holy Night
06. Vincent (Starry, Starry Night)
07. Frozen World (feat. Amelia Brightman)
08. Colder Than Winter
09. Noel Nouvelet
10. Ave Maria (feat. Narcis)
11. Cold November Nights (feat. Amelia Brightman)
12. Hallelujah
13. Vanished Like The Snow
14. Mistletoe And Wine (feat. Amelia Brightman)
15. I Believe In Father Christmas
16. Away In A Manger
17. Coventry Carol
18. The Christmas Song

Dark Flood - Inverno [2014, Melodic Death Metal, MP3]
2014-10-31 04:28
Dark Flood - Inverno



Формат: MP3, tracks, 320kbps
Год выпуска: 2014
Страна: Finland
Жанр: Melodic Death Metal
Продолжительность: 00:50:52
Описание:

01. Hearts into Museums 03:45
02. Misery Is Music 04:38
03. The Fallibles 05:01
04. Culprit’s Script 05:31
05. Force of Nature 07:33
06. The Voice of Absolution 04:06
07. Never-ending Credits 04:49
08. Summer 04:04
09. Inverno 02:35
10. Archetype’s Aspect 08:45


Доп. информация:

Tapio Korhonen - Guitars
Tero Piltonen - Vocals (harsh)
See also: ex-Mors Subita
Ville Ruumensaari - Bass, Vocals (backing) (1996-present)
Kalle Ruumensaari - Guitars, Vocals (clean), Keyboards (1996-present)
Tuomas Jaatinen - Drums (2014-present)
See also: Menial

GodHater - Blasphemia [2014, Метал, MP3]
2014-10-31 04:27
GodHater - Blasphemia
Формат: MP3, tracks, 320kbps
Год выпуска: 2014
Страна: Россия
Жанр: Метал
Продолжительность: 00:50:15
Описание:
01. Дух Распятия (07:04)
02. Крах Безрассудства (05:53)
03. Отступники (04:38)
04. Антиклерикальный Марш (06:18)
05. Легион (06:35)
06. Я Выбираю Тьму (05:23)
07. Angel Of Fire (Unlord Cover) (03:35)
08. GodHater (10:45)

Wake Me Up - I will breathe [2014, Рок, MP3]
2014-10-31 04:20
Wake Me Up - I will breathe
Формат: MP3, tracks, 320kbps
Год выпуска: 2014
Страна: Россия
Жанр: Рок
Продолжительность: 00:44:53
Описание:
01. Я просила
02. Тайны
03. Я буду помнить
04. Наш мир на руках
05. Живи с огнём
06. Дожидаясь весны
07. Февраль
08. Путь надежды
09. Плен
10. Вальс (bonus track)
11. Дожидаясь весны (light version)

Engraved Disillusion - The Eternal Rest [2014, Melodic Death Metal, MP3]
2014-10-31 04:19
Engraved Disillusion - The Eternal Rest



Формат: MP3, tracks, 320kbps
Год выпуска: 2014
Страна: United Kingdom
Жанр: Melodic Death Metal
Продолжительность: 00:51:49
Описание:

01. Life Is... (01:43)
02. Embrace The Flames (03:41)
03. Lost (06:26)
04. Curse The Sorrow (06:04)
05. Shadows Run Black (06:12)
06. No Tomorrow (04:42)
07. Into Oblivion (04:38)
08. In Aeternum (04:56)
09. Echoes From A Silent Sky (04:18)
10. The Eternal Rest (09:06)


Доп. информация:

Chris Threlfall - Drums (2008-present)
Marc Matthews - Guitars (2008-present)
Toby Stewart - Guitars (2008-present)
See also: ex-Awake by Design
Aaron Preston - Bass, Vocals (backing) (2014-present)
Matthews William Mead - Vocals (2014-present)

Сурганова и Оркестр - Игра в классики (Deluxe Version) [2014, Рок, MP3]
2014-10-31 04:05
Сурганова и Оркестр - Игра в классики (Deluxe Version)
Формат: MP3, tracks, 320kbps
Год выпуска: 2014
Страна: Россия
Жанр: Рок
Продолжительность: 01:14:04
Описание:
01. В Этом Городе Фонарей
02. Питер
03. Мне С Тобой
04. Здание
05. Доброволец
06. Я Уйду
07. Пришли Чужие
08. Сказка
09. Прогулка
10. Я Вновь Ухожу
11. Вот И Ты
12. Что-То Прожито
13. Назло Угрюмым
14. Ночь
15. Солнце Погасло
16. Ангел, Ангел
17. В Твою Честь
18. Когда Устанешь
19. Все Сначала
20. Мой Путь
21. Ты-Пламя
22. Мой Путь (Киевская Версия)

Эдуард Подгорный - Дорога сомнений [2014, Шансон, MP3]
2014-10-31 04:01
Эдуард Подгорный - Дорога сомнений
Формат: MP3, tracks, 320kbps
Год выпуска: 2014
Страна: Россия
Жанр: Шансон
Продолжительность: 00:51:19
Описание:
01. Для Вас
02. Встреча
03. Земное
04. Ты
05. Другая
06. Допоздна
07. Любовники
08. Музыка жизни
09. Горит калина
10. Журавли
11. Дикий мёд
12. Что тебе стоит

Александр Федорков - Королева-осень [2014, Шансон, MP3]
2014-10-31 03:51
Александр Федорков - Королева-осень
Формат: MP3, tracks, 320kbps
Год выпуска: 2014
Страна: Россия
Жанр: Шансон
Продолжительность: 00:41:08
Описание:
01 Королева Осень
02 Ангел прекрасный мой
03 Моя любовь
04 Аэропорт
05 Прости Прощай
06 Парус надежды
07 Тебя вернуть
08 Одинокое сердце
09 Няня
10 Спасибо милая за сон
11 Последний Сугроб

Стас Михайлов - 1000 шагов [2014, Шансон, MP3]
2014-10-31 03:44
Стас Михайлов - 1000 шагов
Формат: MP3, tracks, 320kbps
Год выпуска: 2014
Страна: Россия
Жанр: Шансон
Продолжительность: 00:47:04
Описание:
01 Семь дорог
02 Озноб души
03 Ты навсегда моя
04 Ты слышишь небо
05 Брату
06 Там
07 Под прицелом объективов
08 Посланница небес
09 Страдая, падая, взлетая
10 1000 шагов
11 Берега (feat. Emin)
12 Золотое сердце

Дмитрий Прянов - Ты моя звезда [2014, Шансон, MP3]
2014-10-31 03:40
Дмитрий Прянов - Ты моя звезда
Формат: MP3, tracks, 320kbps
Год выпуска: 2014
Страна: Россия
Жанр: Шансон
Продолжительность: 00:43:08
Описание:
01 Просто Это Любовь
02 Напрасно
03 Уеду далеко
04 Ты Моя Звезда
05 Глаза твои
06 С днём рождения
07 Я не могу тебя терять
08 Новый год
09 Так бывает
10 Прощай
11 Я люблю тебя как никогда
12 Первый поцелуй

Паразит - Учение о жизни / Kiseijuu: Sei no Kakuritsu (Симидзу Кэнъити) [TV-1] [1-4 из 24] [JAM & Cuba77 & Trina_D] [RAW] [RUS] [2014 г., приключения, ужасы, HDTVRip] [720p]
2014-10-31 01:19
Паразит - Учение о жизни / Kiseijuu: Sei no Kakuritsu

Перевод: Любительский (многоголосый, закадровый)
Субтитры: отсутствуют
Хардсаб: отсутствует

Формат: HDTVRip, MP4, H.264, AAC
Страна: Япония
Режиссер: Симидзу Кэнъити
Жанр: приключения, ужасы
Продолжительность: ТВ (>24 эп.), 25 мин.
Год выпуска / период трансляции: 09.10.2014
Озвучка: JAM & Cuba77 & Trina_D

Студия:

Описание: На Землю высаживаются представители инопланетной расы, которую назвали просто: Паразит. Паразиты немедленно принимаются захватывать человеческие тела, проникая в носы и уши и прикрепляясь к мозгу. Один из таких пришельцев по имени Миги — настоящий неудачник: ему (вернее, ей) удаётся захватить только кисть правой руки старшеклассника Щиничи Идзуми. Через некоторое время Миги и Щиничи находят общий язык, учатся сосуществовать в одном теле и даже начинают биться с другими Паразитами, которые воспринимают людей исключительно как еду!




Видео: 1280x720p (16:9), 23.976 fps, MPEG4 Video (H264), High@L4.1 ~ 1606 kbps, 0.073bit/pixel
Аудио: [RUS]48.0KHz, AAC, 2ch, ~ 192Kbps avg



Доп. информация: Автор оригинала - Ивааки Хитоси

Список серий

Серия 1: «Метамарфоза!»
Серия 2: «Демон во плоти!»
Серия 3: «Пир!»
Серия 4: «Растрёпанные волосы!»
MediaInfo Report

Полное имя : I:\Аниме\kiseijuu_-_sei_no_kakuritsu_[tv-1]_[tfile.ru]\kiseijuu_-_sei_no_kakuritsu_s01_e01_[tfile.ru].mp4
Формат : MPEG-4
Профайл формата : Base Media
Идентификатор кодека : isom
Размер файла : 296 Мегабайт
Продолжительность : 23 м.
Общий поток : 1802 Кбит/сек
Дата кодирования : UTC 2014-10-09 16:55:44
Дата пометки : UTC 2014-10-09 16:55:44
Программа кодирования : Yamb 2.1.0.0 [http://yamb.unite-video.com]

Видео
Идентификатор : 1
Формат : AVC
Формат/Информация : Advanced Video Codec
Профайл формата : High@L4.1
Параметры CABAC формата : Да
Параметры ReFrames формата : 4 кадры
Идентификатор кодека : avc1
Идентификатор кодека/Информация : Advanced Video Coding
Продолжительность : 23 м.
Вид битрейта : Переменный
Битрейт : 1606 Кбит/сек
Максимальный битрейт : 9301 Кбит/сек
Ширина : 1280 пикс.
Высота : 720 пикс.
Соотношение кадра : 16:9
Режим частоты кадров : Постоянный
Частота кадров : 23,976 кадр/сек
Разрешение : 8 бит
Колориметрия : 4:2:0
Тип развёртки : Прогрессивная
Бит/(Пиксели*Кадры) : 0.073
Размер потока : 264 Мегабайт (89%)
Заголовок : 264
Библиотека кодирования : x264 core 129 r2245+729M 1a52e03
Настройки программы : cabac=1 / ref=4 / deblock=1:1:-1 / analyse=0x3:0x113 / me=umh / subme=9 / psy=1 / fade_compensate=0.00 / psy_rd=1.00:0.00 / mixed_ref=1 / me_range=24 / chroma_me=1 / trellis=2 / 8x8dct=1 / cqm=0 / deadzone=21,11 / fast_pskip=1 / chroma_qp_offset=-2 / threads=8 / lookahead_threads=1 / sliced_threads=0 / nr=0 / decimate=1 / interlaced=0 / bluray_compat=0 / constrained_intra=0 / fgo=0 / bframes=9 / b_pyramid=2 / b_adapt=2 / b_bias=0 / direct=1 / weightb=1 / open_gop=0 / weightp=2 / keyint=240 / keyint_min=24 / scenecut=40 / intra_refresh=0 / rc=crf / mbtree=0 / crf=18.5 / qcomp=0.72 / qpmin=0 / qpmax=69 / qpstep=4 / ip_ratio=1.40 / pb_ratio=1.30 / aq=1:0.85
Дата кодирования : UTC 2014-10-08 20:30:46
Дата пометки : UTC 2014-10-09 16:55:47
Основные цвета : BT.709-5, BT.1361, IEC 61966-2-4, SMPTE RP177
Характеристики трансфера : BT.709-5, BT.1361
Коэффициенты матрицы : BT.709-5, BT.1361, IEC 61966-2-4 709, SMPTE RP177

Аудио
Идентификатор : 2
Формат : AAC
Формат/Информация : Advanced Audio Codec
Версия формата : Version 4
Профайл формата : LC
Параметры SBR формата : Нет
Идентификатор кодека : 40
Продолжительность : 22 м.
Вид битрейта : Переменный
Битрейт : 192 Кбит/сек
Максимальный битрейт : 196 Кбит/сек
Канал(ы) : 2 канала(ов)
Расположение каналов : Front: L R
Частота : 48,0 КГц
Размер потока : 31,6 Мегабайт (11%)
Язык : English
Дата кодирования : UTC 2014-10-09 16:55:46
Дата пометки : UTC 2014-10-09 16:55:47
Показать скриншоты






[/spoiler]
Раскрыть
Внимание! Раздача ведётся путём добавления новых серий; при каждом добавлении создается новый торрент. Чтобы начать докачку новой серии, пользователям необходимо сделать следующее:
(1) остановить скачивание,
(2) удалить старый торрент у себя из клиента (старые серии удалять не надо),
(3) скачать новый торрент и запустить его у себя в клиенте вместо старого, при этом указать клиенту путь в старую папку куда и должно происходить скачивание новых серий.

Ваш клиент при этом должен произвести хеширование (проверку) старой папки (если не производит сам - помогите ему сделать это), и будет докачивать только те серии которых у вас ещё нет. Старые серии при этом не удаляются, а продолжают раздаваться!

Если вы уже удалили старые серии, то предотвратить повторную закачку старых серий можно, отжав галочку в соответствующих местах при запуске нового торрента. По возможности, желательно не удалять старые серии как можно дольше чтобы релизёр не столько продолжал раздавать старые серии, а смог сконцентрироваться на новых.

Дикая Канада (2 серии из 5) / Wild Canada (Давид Судзуки) [2014, документальный, HDTVRip 720р] DUB
2014-10-31 00:20
Дикая Канада (2 серии из 5) / Wild Canada
Перевод: Профессиональный (полное дублирование), cубтитры: отсутствуют
Формат: HDTVRip, MKV, H.264, AC3
Страна: Канада
Режиссер: Давид Судзуки
Жанр: документальный
Продолжительность: 2 x ~00:44:00
Год выпуска: 2014

Описание: Красивые съёмки и мастерская работа над материалом составляют четыре эпизода передачи Дикая Канада, которые проведут нас по захватывающей истории северной части Североамериканского континента. Захватывающие дух воздушные съёмки, невероятная работа операторов, впечатляющие замедленные кадры умело вплетены в сюжет, оживляя повествование. От побережья к побережью, от равнин до лесов, от широких прерий до холодных и на вид пустых арктических ландшафтов — это всеобъемлющий рассказ о стране, которая сегодня известна под названием Канада.



Видео: 1280x720р (16:9), 25,000fps, AVC (x264) High@L3.1 , ~ 4198 kbps avg, 0.182 bit/pixel
Аудио: 48.0 kHz, AC3, (Front: L R) , 2 ch ~192Kbps avg
(тех. данные всех файлов идентичны)

MediaInfo
Общее
Уникальный идентификатор : 175443975893054559713096221393730388888 (0x83FD47DA37937DC692241A445BFBC398)
Полное имя : D:\Downloads\Wild Canada_720p\01_The Eternal Frontier.mkv
Формат : Matroska
Версия формата : Version 4 / Version 2
Размер файла : 1,38 Гбайт
Продолжительность : 43 м.
Режим общего битрейта : Постоянный
Общий поток : 4479 Кбит/сек
Дата кодирования : UTC 2014-10-25 12:39:46
Программа кодирования : mkvmerge v7.3.0 ('Nouages') 64bit built on Oct 22 2014 18:53:34
Библиотека кодирования : libebml v1.3.0 + libmatroska v1.4.1
DURATION : 00:43:59.799000000
NUMBER_OF_FRAMES : 65995
NUMBER_OF_BYTES : 1414153524
_STATISTICS_WRITING_APP : mkvmerge v7.3.0 ('Nouages') 64bit built on Oct 22 2014 18:53:34
_STATISTICS_WRITING_DATE_UTC : 2014-10-25 12:39:46
_STATISTICS_TAGS : BPS DURATION NUMBER_OF_FRAMES NUMBER_OF_BYTES

Видео
Идентификатор : 1
Формат : AVC
Формат/Информация : Advanced Video Codec
Профиль формата : High@L3.1
Параметр CABAC формата : Да
Параметр ReFrames формата : 3 кадра
Идентификатор кодека : V_MPEG4/ISO/AVC
Продолжительность : 43 м.
Вид битрейта : Постоянный
Битрейт : 4198 Кбит/сек
Номинальный битрейт : 4500 Кбит/сек / 4500 Кбит/сек
Ширина : 1280 пикселей
Высота : 720 пикселей
Соотношение сторон : 16:9
Режим частоты кадров : Постоянный
Частота кадров : 25,000 кадров/сек
Стандарт вещания : NTSC
Цветовое пространство : YUV
Субдискретизация насыщенности : 4:2:0
Битовая глубина : 8 бит
Тип развёртки : Прогрессивная
Бит/(Пиксели*Кадры) : 0.182
Размер потока : 1,29 Гбайт (94%)
Библиотека кодирования : x264 core 114
Настройки программы : cabac=1 / ref=3 / deblock=1:0:0 / analyse=0x3:0x113 / me=hex / subme=7 / psy=1 / psy_rd=1.00:0.00 / mixed_ref=1 / me_range=16 / chroma_me=1 / trellis=1 / 8x8dct=1 / cqm=2 / deadzone=21,11 / fast_pskip=1 / chroma_qp_offset=-2 / threads=6 / sliced_threads=0 / slices=1 / nr=0 / decimate=1 / interlaced=0 / constrained_intra=0 / bframes=3 / b_pyramid=0 / b_adapt=1 / b_bias=0 / direct=1 / weightb=1 / open_gop=0 / weightp=2 / keyint=250 / keyint_min=25 / scenecut=40 / intra_refresh=0 / rc_lookahead=40 / rc=cbr / mbtree=1 / bitrate=4500 / ratetol=1.0 / qcomp=0.60 / qpmin=3 / qpmax=69 / qpstep=4 / vbv_maxrate=4500 / vbv_bufsize=4489 / nal_hrd=cbr / ip_ratio=1.40 / aq=1:1.00
Default : Да
Forced : Нет
Основные цвета : BT.709
Характеристики трансфера : BT.709
Коэффициенты матрицы : BT.709

Аудио
Идентификатор : 2
Формат : AC-3
Формат/Информация : Audio Coding 3
Расширение режима : CM (complete main)
Параметр Endianness формата : Big
Идентификатор кодека : A_AC3
Продолжительность : 43 м.
Вид битрейта : Постоянный
Битрейт : 192 Кбит/сек
Каналы : 2 канала
Расположение каналов : Front: L R
Частота : 48,0 КГц
Битовая глубина : 16 бит
Метод сжатия : С потерями
Размер потока : 60,4 Мбайт (4%)
Default : Да
Forced : Нет
Содержание

01. Вечная целина / The Eternal Frontier
02. Дикий Запад / The Wild West
Внимание! Раздача ведётся путём добавления новых серий
Внимание! Раздача ведётся путём добавления новых серий; при каждом добавлении создётся новый торрент. Чтобы начать докачку новой серии, пользователям необходимо сделать следующее:
(1) остановить скачивание,
(2) удалить старый торрент у себя из клиента (старые серии удалять не надо),
(3) скачать новый торрент и запустить его у себя в клиенте вместо старого, при этом указать клиенту путь в старую папку куда и должно происходить скачивание новых серий.

Ваш клиент при этом должен произвести хеширование (проверку) старой папки (если не производит сам - помогите ему сделать это), и будет докачивать только те серии которых у вас ещё нет. Старые серии при этом не удаляются, а продолжают раздаваться!

Eсли вы уже удалили старые серии, то предотвратить повторную закачку старых серий можно, отжав галочку в соответсвующих местах при запуске нового торрента. По возможности, желательно не удалять старые серии как можно дольше чтобы релизёр не столько продолжал раздавать старые серии, а смог сконцентрироваться на новых.

Удалить язык на Win 7
2014-10-31 00:06
Привет. Кто может подсказать каким образом удалить руский язык на семерке? при помощи комбинации клавиш, он есть. захожу в панель управления-языки=его нету.

Вокальный Квартет Аккорд - Золотая коллекция ретро [2006, Oldies, MP3]
2014-10-30 23:28
Вокальный Квартет Аккорд - Золотая коллекция ретро
Формат: MP3, tracks, 320kbps
Год выпуска: 2006
Страна: СССР/Россия
Жанр: Oldies
Продолжительность: 01:07:25
Описание:
01. Генералы песчаных карьеров
02. Эхо
03. Где-то за радугой
04. Прекрасные девушки
05. Бубенцы
06. Кокороко
07. Плясовая
08. Белая лебедушка
09. Пешеход
10. Ноктюрн
11. Ты и я
12. Хлоп-Хлоп
13. Ваня-Скоморох
14. Люди говорят
15. Грустиночка
16. Звездопад
17. Возвращайся
18. Пингвины
19. Назло
20. Песня об Одиссее


Доп. информация:
Записи 70-х годов.

Отважные спасатели 4 / Rescue Team 4 [2014, Бизнес симуляторы]
2014-10-30 23:23
Отважные спасатели 4 / Rescue Team 4
Год выпуска: 2014
Жанр: Бизнес симуляторы
Разработчик: Alawar
Издательство: Alawar
Сайт разработчика: http://www.alawar.ru/
Язык интерфейса: Русский(SGWS и HI-Media)
Платформа: PC

Системные требования:
Операционная система Microsoft Windows 2000/XP/Vista
Процессор Pentium 4.
Видеоадаптер с памятью 252 МБ, совместимый с DirectX 9
Оперативная память 512 Мб
Место на ЖД: 150 Мб

Описание:
Используйте все свои навыки планирования, чтобы найти самый быстрый способ для устранения препятствий, сбора ресурсов и выполнения поставленных перед вами задач. Восстанавливайте дома и мосты, спасайте людей от стихийных бедствий и остановите утечку нефти и загрязнение земли и воды химическими свалками. Самолеты, поезда и другие удивительные транспортные средства будут в вашем распоряжении. Вы можете играть на время, чтобы заработать звезды или расслабиться и играть в свое удовольствие. В любом случае, будет много достижений, которые можно получить! Присоединяйтесь к спасателям и станьте настоящим героем!

Доп. информация:
Установи играй.

Релиз от