RSS-канал «tfile.co»

Доступ к архиву новостей RSS-канала возможен только после подписки.

Как подписчик, вы получите в своё распоряжение бесплатный веб-агрегатор новостей доступный с любого компьютера в котором сможете просматривать и группировать каналы на свой вкус. А, так же, указывать какие из каналов вы захотите читать на вебе, а какие получать по электронной почте.

   

Подписаться на другой RSS-канал, зная только его адрес или адрес сайта.

Код формы подписки на этот канал для вашего сайта:

Форма для любого другого канала

Последние новости

OST - VA - Angry Birds в кино / The Angry Birds Movie (Original Motion Picture Soundtrack) [2016, Pop, Rock, Soundtrack, MP3]
2016-05-30 23:33
OST - VA - Angry Birds в кино / The Angry Birds Movie (Original Motion Picture Soundtrack)
Формат: MP3, tracks, 320kbps
Год выпуска: 2016
Страна: USA
Жанр: Pop, Rock
Продолжительность: 00:48:48
Описание:

01. Blake Shelton - Friends
02. Demi Lovato - I Will Survive
03. Matoma - Wonderful Life (Mi Oh My)
04. Imagine Dragons - On Top of the World
05. Charli XCX - Explode
06. Rick Astley - Never Gonna Give You Up
07. Scorpions - Rock You Like a Hurricane
08. Steve Aoki - Fight
09. Tone-Loc - Wild Thing
10. KRS-One - Sound of da Police
11. Limp Bizkit - Behind Blue Eyes
12. Peter Dinklage - The Mighty Eagle Song
13. The Hatchlings - The Mighty Red Song
14. Heitor Pereira - The Angry Birds Movie Score Medley


Доп. информация:
https://itunes.apple.com/us/album/angry-birds-movie-original/id1098314780

Михаил Лиманский - Десяточка [2010, Шансон, MP3]
2016-05-30 23:22
Михаил Лиманский - Десяточка
Формат: MP3, tracks, 320kbps
Год выпуска: 2010
Страна: Россия
Жанр: Шансон
Продолжительность: 00:41:09
Описание:

01. Злобушка
02. Красные листья
03. Верная подруга
04. За рюмкой водки
05. Моя душа
06. Облака-лебедушки
07. Песня о родине
08. Сочинская баллада
09. Старый город
10. Пеструха
11. Столица


Доп. информация:

Спасибо Ник: jorik

UFC Fight Night 88: Almeida vs. Garbrandt (Основной кард) [29.05.2016, MMA, HDTV 1080i, RU, EN]
2016-05-30 23:22
UFC Fight Night 88: Almeida vs. Garbrandt (Основной кард)


Формат: HDTV 1080i, TS, H.264, MP3
Страна: США
Участники: Бойцы MMA
Вид спорта: MMA
Продолжительность: 03:17:59
Дата эфира: 29.05.2016

Перевод: Русский, Английский, cубтитры: отсутствуют
Язык комментариев: Русский, Английский
Комментатор: Берлин Руслан

Описание: "UFC Fight Night 88: Almeida vs. Garbrandt", прошедшего 29 мая 2016 года в "Mandalay Bay Events Center", Лас Вегас, штат Невада, США.

Видео: MPEG4 Video (H264) 1920x1080 (16:9), 25fps, 6.9 Mbps
Аудио #Русский: MP3 48000Hz stereo 192kbps
Аудио #Английский: MP3 48000Hz stereo 192kbps

Автор рипа/записи: dean10


MI
Format : MPEG-TS
File size : 10.5 GiB
Duration : 3h 17mn
Overall bit rate mode : Variable
Overall bit rate : 7 563 Kbps

Video
ID : 102 (0x66)
Menu ID : 1234 (0x4D2)
Format : AVC
Format/Info : Advanced Video Codec
Format profile : High@L4
Format settings, CABAC : Yes
Format settings, ReFrames : 3 frames
Codec ID : 27
Duration : 3h 17mn
Bit rate mode : Constant
Bit rate : 6 860 Kbps
Width : 1 920 pixels
Height : 1 080 pixels
Display aspect ratio : 16:9
Frame rate : 25.000 fps
Color space : YUV
Chroma subsampling : 4:2:0
Bit depth : 8 bits
Scan type : MBAFF
Scan order : Top Field First
Bits/(Pixel*Frame) : 0.132
Stream size : 9.41 GiB (90%)
Color range : Limited
Color primaries : BT.709
Transfer characteristics : BT.709
Matrix coefficients : BT.709

Audio #1
ID : 103 (0x67)
Menu ID : 1234 (0x4D2)
Format : MPEG Audio
Format version : Version 1
Format profile : Layer 2
Codec ID : 3
Duration : 3h 17mn
Bit rate mode : Constant
Bit rate : 192 Kbps
Channel(s) : 2 channels
Sampling rate : 48.0 KHz
Compression mode : Lossy
Stream size : 272 MiB (3%)
Language : English

Audio #2
ID : 104 (0x68)
Menu ID : 1234 (0x4D2)
Format : MPEG Audio
Format version : Version 1
Format profile : Layer 2
Codec ID : 3
Duration : 3h 17mn
Bit rate mode : Constant
Bit rate : 192 Kbps
Channel(s) : 2 channels
Sampling rate : 48.0 KHz
Compression mode : Lossy
Stream size : 272 MiB (3%)
Language : English

Кард
Main Card [FOX Sports 1]:

[Bantamweight] Thomas Almeida vs. Cody Garbrandt

[Featherweight] Renan Barão vs. Jeremy Stephens

[Welterweight] Tarec Saffiedine vs. Rick Story

[Middleweight] Chris Camozzi vs. Vitor Miranda

[Welterweight] Jorge Masvidal vs. Lorenz Larkin

[Lightweight] Josh Burkman vs. Paul Felder

The Extinct Dreams - Фрагменты Вечности [2016, Funeral Doom , Death Metal, MP3]
2016-05-30 23:14
The Extinct Dreams - Фрагменты Вечности
Формат: MP3, tracks, 320kbps
Год выпуска: 2016
Страна: Россия
Жанр: Funeral Doom, Death Metal
Продолжительность: 00:47:46
Описание:
01. Карма
02. Damodara Stotra
03. В Поисках Себя
04. Фрагменты Вечности

Доп. информация:
Состав:
Ramapriya - Guitars, Vocals (2006-present)
Selena - Bass (2013-present)
Dmitry - Drums (2014-present)
Andrey - Guitars (2015-present)
Elena - Keyboards (2015-present)

Владимир Трушин и гр.Санкт-Петербург - Русские [1989, Рок, ПопMP3]
2016-05-30 23:04
Владимир Трушин и гр.Санкт-Петербург - Русские
Формат: MP3, tracks, 320kbps
Год выпуска: 1989
Страна: СССР
Жанр: Рок, Поп
Продолжительность: 00:27:39
Описание:

1. Драгоценная ты моя женщина
2. Не уходи
3. Москва
4. Русская звезда
5. Русские
6. Венчали нас не в церкви
7. Ну как тебе мало лет

Хроники Лиззи Борден, 1 сезон 1-8 серия из 8 / The Lizzie Borden Chronicles [ViruseProject] (Ховард Дойч, Стефен Т. Кэй, Константин Макрис) [2015, ужасы, драма, криминал, триллер, HDTVRip, L]
2016-05-30 22:23
Хроники Лиззи Борден / The Lizzie Borden Chronicles

Перевод: Любительский (многоголосый закадровый) | ViruseProject
Субтитры: отсутствуют
Формат: HDTVRip, AVI, XVID, MP3
Страна: Галифакс, Новая Шотландия, Канада, США, Magic Rock Productions, Sony Pictures Television
Режиссер: Ховард Дойч, Стефен Т. Кэй, Константин Макрис
Жанр: ужасы, драма, криминал, триллер
Всего серий: 8
Продолжительность: 8 х ~00:42:00
Год выпуска: 2015

В ролях: Кристина Риччи, Клеа ДюВалл, Коул Хаузер, Дилан Тейлор, Брэдли Страйкер, Оливия Ллевелин, Джефф Уинкотт, Джон Ралстон, Джесси Шрэм, Марта Ирвинг

Описание: Художественный сериал «The Lizzie Borden Chronicles» является продолжением основанного на реально имевших место событиях мини-сериала «Lizzie Borden Took an Ax» того же канала Lifetime. Лиззи Борден – личность печально примечательная в криминальной истории Америки. Поэтому создатели разного рода телепроектов не обходят её стороной. По сюжету сериала, после судебного процесса Лиззи возвращается в родной город. И тут среди её близких начинается просто сенокос смертей. Доказать, что в этом виновата Борден, берётся детектив Чарли Сириньо.

Рейтинг:

Видео: 720x400 (1.80:1), 23.976 fps, XviD build 50 ~1827 kbps avg, 0.26 bit/pixel
Аудио: 48 kHz, MPEG Layer 3, 2 ch, ~192.00 kbps avg (ViruseProject)



Релиз

Роли озвучивали: Елена Емельянова, Татьяна Романовская, Дмитрий Кравченко, Дмитрий Иванов
Перевод на русский язык: Екатерина Момотюк, Татьяна Масаковская
Подготовка видео: Виталий Емельянов
Монтаж, сведение звука: Дмитрий Иванов
Присутствует реклама - звуковая и текстовая

Italo Disco - Come Back 3 (Chwaster Mixx) [2016, Italo-Disco, MP3]
2016-05-30 19:59
Italo Disco - Come Back 3 (Chwaster Mixx)
Формат: MP3, image, 256kbps
Год выпуска: 2016
Страна: All World
Жанр: Italo-Disco
Продолжительность: 00:15:02
Описание:

1. K.B. Caps - Do You Realy Need Me
2. Alan Ross - Valentino Mon Amour
3. Miko Mission - How Old Are You
4. R.Bais - Dial My Number
5. Torrevado -Living In The Shuttle
6. Ken Laszlo - 1,2,3,4,5,6,7,8...

Пеле: Рождение легенды / Pele: Birth of a Legend (Джефф Цимбалист, Майкл Цимбалист) [2016, драма, биография, спорт, WEB-DLRip] MVO
2016-05-30 19:53
Пеле: Рождение легенды / Pele: Birth of a Legend
Перевод: Любительский (многоголосый) RecentFilms, cубтитры: отсутствуют
Формат: WEB-DLRip, AVI, XviD, AC3
Страна: США
Режиссер: Джефф Цимбалист, Майкл Цимбалист
Жанр: драма, биография, спорт
Продолжительность: 01:46:55
Год выпуска: 2016

В ролях: Винсент Д’Онофрио, Родриго Санторо, Диего Бонета, Колм Мини, Пеле, Сеу Жоржи, Тоня Корнелисс, Мариана Балса

Описание: Биографическая драма расскажет о закулисье спорта, в частности о жизни величайшего игрока в истории футбола — Пеле. Зрители станут свидетелями непростой жизни бразильской легенды спорта. Сколько преград тому удалось преодолеть на своем пути, чтобы добиться мировой популярности? Это сейчас он демонстрирует невероятные профессиональные достижения и вдобавок ко всему не забывает о благородных делах, но раньше все было по-другому. С ранних лет Пеле жаждал получить признание, неустанно шел к своей мечте, преодолевая препятствия, тем самым закаляя свой характер. Картина охватывает детство футболиста, вплоть до победы на первом этапе Кубка мира в Швеции, когда Пеле было семнадцать лет. Судьба не всегда была благосклонна к спортсмену, однако за каждой успешной личности стоит огромный труд, железная воля и твердая уверенность в собственных силах.



Видео: 720x304 (2.37:1), 23.976 fps, XviD build 65 ~1566 kbps, 0.30 bit/pixel
Аудио: 48 kHz, AC3 Dolby Digital, 2/0 (L,R) ch, ~384 kbps

Gianna Nannini - Hitalia [2014, Pop-Rock, MP3]
2016-05-30 19:49
Gianna Nannini - Hitalia
Формат: MP3, tracks, 320kbps
Год выпуска: 2014
Страна: Italy
Жанр: Pop-Rock
Продолжительность: 00:57:06
Описание:
01. Dio e' morto
02. L'immensita'
03. Lontano dagli occhi
04. Il cielo in una stanza
05. Dedicato
06. La canzone di Marinella
07. C'e' chi dice no
08. Io che non vivo senza te
09. Io che amo solo te
10. Mamma
11. Insieme a te non ci sto piu'
12. Caruso
13. Il mondo
14. Pugni chiusi
15. 'O sole mio
16. Un'avventura
17. Volare (Nel blu dipinto di blu)


Доп. информация: http://www.giannanannini.com/discography/

Рип сайта gde-fon.com -Эротические фотографии девушек (часть 2) [2016, эротическая фотография]
2016-05-30 19:48
Рип сайта gde-fon.com -Эротические фотографии девушек (часть 2)
Год выпуска: 2016
Жанр: эротическая фотография
Автор: неизвестно
Издательство: gde-fon.com
Формат файлов: JPG
Разрешение: от 1365x910 до 10552x5664
Количество картинок: 8226
Описание: Вниманию пользователей представлен сборник изображений из раздела Girls Gdefon (девушки) . В сборнике собраны изображения моделей и просто безумно красивых и соблазнительных девушек. Многие изображения могут быть использованы в качестве обоев для рабочего стола компьютера. Раздача эротического содержания.

Время покажет с Петром Толстым (Эфир от 30.05.2016) (Первый канал) [2016, ТВ-шоу, информационно-аналитическая программа, SATRip]
2016-05-30 19:42
Время покажет с Петром Толстым (Эфир от 30.05.2016)
Перевод: Не требуется, cубтитры: отсутствуют
Формат: SATRip, AVI, XviD, AC3
Страна: Россия
Режиссер: Первый канал
Жанр: ТВ-шоу, информационно-аналитическая программа
Продолжительность: ~01:30:00
Год выпуска: 2016

Ведущие: Петр Толстой и Екатерина Стриженова

Описание: В студии программы «Время покажет» обсуждают то, что волнует каждого из нас, жителей России. В дискуссии принимают участие как эксперты – политики, политологи, журналисты, предприниматели, так и просто неравнодушные россияне.

Видео: 720x400 (1.80:1), 25 fps, XviD MPEG-4 ~1810 kbps avg, 0.251 bit/pixel
Аудио: 48 kHz, AC3 Dolby Digital, 2/0 (L,R) ch, ~192.00 kbps avg

Алиса в Зазеркалье / Alice Through the Looking Glass (Джеймс Бобин) [2016, фэнтези, приключения, семейный, TeleCine] DUB
2016-05-30 19:39
Алиса в Зазеркалье / Alice Through the Looking Glass
Перевод: Профессиональный (полное дублирование) звук с CAMRip, субтитры: корейские (вшитые)
Формат: TeleCine, MKV, H.264, AC3
Страна: США
Режиссер: Джеймс Бобин
Жанр: фэнтези, приключения, семейный
Продолжительность: 01:51:38
Год выпуска: 2016

В ролях: Миа Васиковска, Джонни Депп, Хелена Бонем Картер, Энн Хэтэуэй, Саша Барон Коэн, Рис Иванс, Мэтт Лукас, Линдси Дункан, Лео Билл, Джеральдин Джеймс

Описание: На этот раз главной героине предстоит отправиться в путешествие во времени, полное неожиданностей и ярких открытий, чтобы спасти своего друга, Безумного Шляпника.



Видео: 1280x700 (16:9), 29.970 fps, AVC MPEG-4 (H.264), High@L4.1 ~2766 kbps, 0.103 bit/pixel
Аудио: 48 kHz, AC3 Dolby Digital, 2/0 (L,R) ch, ~192 kbps

Доп. информация: Присутствует реклама.
Отсутствует около 3-х минут перевода.СЭМПЛ

Отчет MediaInfo
Общее
Уникальный идентификатор : 177440212299805540281614628453223377424 (0x857DBDE7F57C6C1DAFDD5981F27E2A10)
Полное имя : E:\AL1Ca.B.3a3ePKaLje.2O16.D.TC.720P.mkv
Формат : Matroska
Размер файла : 2,35 Гбайт
Продолжительность : 1 ч. 51 м.
Общий поток : 3018 Кбит/сек
Дата кодирования : UTC 2016-05-30 02:39:44
Программа кодирования : mkvmerge v8.3.0 ('Over the Horizon') 64bit
Библиотека кодирования : libebml v1.3.1 + libmatroska v1.4.2

Видео
Идентификатор : 1
Формат : AVC
Формат/Информация : Advanced Video Codec
Профиль формата : High@L4.1
Параметр CABAC формата : Да
Параметр ReFrames формата : 9 кадров
Идентификатор кодека : V_MPEG4/ISO/AVC
Продолжительность : 1 ч. 51 м.
Вид битрейта : Постоянный
Битрейт : 2766 Кбит/сек
Номинальный битрейт : 3200 Кбит/сек
Ширина : 1280 пикс.
Высота : 700 пикс.
Соотношение сторон : 16:9
Частота кадров : 29,970 кадр/сек
Стандарт вещания : Component
Цветовое пространство : YUV
Подвыборка цветности : 4:2:0
Битовая глубина : 8 бит
Тип развёртки : Прогрессивная
Бит/(Пиксели*Кадры) : 0.103
Размер потока : 2,16 Гбайт (92%)
Основные цвета : BT.709-5, BT.1361, IEC 61966-2-4, SMPTE RP177
Характеристики трансфера : BT.709-5, BT.1361
Коэффициенты матрицы : BT.709-5, BT.1361, IEC 61966-2-4 709, SMPTE RP177

Аудио
Идентификатор : 2
Формат : AC-3
Формат/Информация : Audio Coding 3
Расширение режима : CM (complete main)
Идентификатор кодека : A_AC3
Продолжительность : 1 ч. 51 м.
Вид битрейта : Постоянный
Битрейт : 192 Кбит/сек
Каналы : 2 канала
Расположение каналов : Front: L R
Частота : 48,0 КГц
Битовая глубина : 16 бит
Метод сжатия : С потерями
Размер потока : 153 Мбайт (6%)

«Фетисов» (1 выпуск) [2016, ток-шоу, телепередача, документальный, SATRip]
2016-05-30 19:37
«Фетисов» (1 выпуск)
Перевод: Не требуется, cубтитры: отсутствуют
Формат: SATRip, AVI, XviD, MP3
Страна: Россия
Жанр: ток-шоу, телепередача, документальный
Продолжительность: 00:42:20
Год выпуска: 2016

Описание: Почему не окупаются затраты на проведение последних чемпионатов мира? Неужели чиновников из Международной федерации хоккея на льду не смущают полупустые трибуны на большинстве матчей и многомиллионные убытки организаторов? Правда ли, что хоккейная элита относится к чемпионату мира снисходительно, а болельщики потеряли к нему интерес? Что нужно сделать для спасения престижа мировых первенств?

Видео: 704x400 (1.76:1), 25 fps, XviD MPEG-4 ~1700 kbps avg, 0.20 bit/pixel
Аудио: 48 kHz, MPEG Layer 3, 2 ch, ~128.00 kbps avg

Смешарики. Легенда о золотом драконе [Вертикальная анаморфная стереопара] (Денис Чернов) [2016, мультфильм, приключения, комедия, BDRip 1080p 3D]
2016-05-30 19:36
Смешарики. Легенда о золотом драконе
______________________________________________________

Перевод: Не требуется
Субтитры: отсутствуют
Формат: BDRip 1080p 3D, MKV, H.264, AC3
Порядок ракурсов: левый ракурс первый
Страна: Россия / Universal Pictures, Фонд Кино, Ruku, Art Pictures Studio, Petersburg Animation Studio
Режиссер: Денис Чернов
Жанр: мультфильм, приключения, комедия
Продолжительность: 01:20:15
Год выпуска: 2016

Роли озвучивали: Михаил Черняк, Сергей Мардарь, Антон Виноградов, Владимир Постников, Светлана Письмиченко, Вадим Бочанов, Гарик Харламов, Дмитрий Нагиев, Елена Шульман, Владимир Маслаков

Описание: Выдающийся учёный и его команда отправляются в самое сердце диких джунглей, где их ждут опасные приключения, свирепые туземцы и расхитители гробниц, до зубов вооруженные гаджетами.


Видео: 1920х1080p (16:9), AVC/H.264, (High@L4.1), 23.976fps, 12.5Mbps, 0.251Bits/(Pixel*Frame)
Аудио: Русский AC3, 48KHz, 6ch, 640Kbps

__ Трейлер

Доп.информация: Проверено на встроенном плейере LG47LW575S
Для просмотра понадобится 3D Телевизор + 3D проигрыватель (если в телевизоре нет встроенного проигрывателя)
Для просмотра на компьютере понадобится Stereoscopic Player 1.7.1 Portable

_______________________________________________ «Предпоследняя надежда человечества»

MediaInfo
General
Unique ID : 202874640794314223767753748788015149867 (0x98A03C0C88C44BEFA3DBD2E9F382332B)
Complete name : E:Smeshariki.LegendaOZolotomDrakone(2016)3D-halfOU(Ash61).mkv
Format : Matroska
Format version : Version 2
File size : 7.51 GiB
Duration : 1h 20mn
Overall bit rate : 13.4 Mbps
Movie name : Смешарики. Легенда о золотом драконе (2016) в 3Д
Encoded date : UTC 2016-05-27 15:26:30
Writing application : mkvmerge v5.8.0 ('No Sleep / Pillow') built on Sep 2 2012 15:37:04
Writing library : libebml v1.2.3 + libmatroska v1.3.0

Video
ID : 1
Format : AVC
Format/Info : Advanced Video Codec
Format profile : High@L4.1
Format settings, CABAC : Yes
Format settings, ReFrames : 4 frames
Codec ID : V_MPEG4/ISO/AVC
Duration : 1h 20mn
Bit rate : 12.5 Mbps
Width : 1 920 pixels
Height : 1 080 pixels
Display aspect ratio : 16:9
Frame rate mode : Constant
Frame rate : 23.976 fps
Color space : YUV
Chroma subsampling : 4:2:0
Bit depth : 8 bits
Scan type : Progressive
Bits/(Pixel*Frame) : 0.251
Stream size : 7.01 GiB (93%)
Title : BDRip by Ash61
Writing library : x264 core 146 r2538 121396c
Encoding settings : cabac=1 / ref=4 / deblock=1:-3:-3 / analyse=0x3:0x113 / me=umh / subme=10 / psy=1 / psy_rd=1.00:0.00 / mixed_ref=1 / me_range=32 / chroma_me=1 / trellis=2 / 8x8dct=1 / cqm=0 / deadzone=21,11 / fast_pskip=1 / chroma_qp_offset=-2 / threads=12 / lookahead_threads=3 / sliced_threads=0 / nr=0 / decimate=1 / interlaced=0 / bluray_compat=0 / constrained_intra=0 / bframes=12 / b_pyramid=2 / b_adapt=2 / b_bias=0 / direct=3 / weightb=1 / open_gop=0 / weightp=2 / keyint=250 / keyint_min=23 / scenecut=40 / intra_refresh=0 / rc_lookahead=60 / rc=crf / mbtree=1 / crf=15.0 / qcomp=0.70 / qpmin=0 / qpmax=69 / qpstep=4 / vbv_maxrate=40000 / vbv_bufsize=30000 / crf_max=0.0 / nal_hrd=none / filler=0 / frame-packing=4 / ip_ratio=1.40 / aq=1:0.70
Language : Russian
Default : Yes
Forced : No

Audio
ID : 2
Format : AC-3
Format/Info : Audio Coding 3
Mode extension : CM (complete main)
Format settings, Endianness : Big
Codec ID : A_AC3
Duration : 1h 20mn
Bit rate mode : Constant
Bit rate : 640 Kbps
Channel(s) : 6 channels
Channel positions : Front: L C R, Side: L R, LFE
Sampling rate : 48.0 KHz
Bit depth : 16 bits
Compression mode : Lossy
Stream size : 367 MiB (5%)
Title : Оригинал - BD 3D Rus
Language : Russian
Default : Yes
Forced : No

Menu
00:00:00.000 : :1
00:11:51.961 : :2
00:20:18.634 : :3
00:30:19.568 : :4
00:39:01.839 : :5
00:50:24.021 : :6
00:59:05.834 : :7
01:09:52.480 : :8

Маханенко Василий - Сборник произведений [2015, Фантастика, FB2, OCR без ошибок]
2016-05-30 19:31
Маханенко Василий - Сборник произведений
Формат: FB2, OCR без ошибок
Автор: Маханенко Василий
Год выпуска: 2015
Жанр: Фантастика
Издательство: Альфа-книга, Эксмо
Язык: русский
Количество книг: 8




Описание: Василий Михайлович Маханенко родился 20 апреля 1981 года в пос.Томаровка Белгородской области, где и прожил первые 17 лет своей жизни. В 1999 году поступил в Белгородский государственный университет на физико-математический факультет, который и окончил с дипломом специалиста в 2004 году. Во время учебы активно участвовал в межфакультетских играх КВН. Был членом Молодежного правительства Белгородской области.
С 2008 года живет и работает в Москве в сфере управления проектами внедрения SAP.
В 2012 году на сайте «Самиздат» появилась первая книга о жизни Шамана на просторах игрового мира Барлионы, которая уже в мае 2013 года вышла в свет.





СПИСОК КНИГ

Проект Галактиона
1. Галактиона. Начало игры



Мир Барлионы
1. Барлиона
2. Путь Шамана. Гамбит Картоса
3. Путь Шамана. Тайна Темного леса
4. Путь Шамана. Призрачный замок
5. Путь Шамана. Шахматы Кармадонта
6. Путь Шамана. Все только начинается
7. Путь Шамана. Поиск Создателя


VA - The Annual Festival Sessions [2016, Electro House, MP3]
2016-05-30 19:27
VA - The Annual Festival Sessions
Формат: MP3, tracks, 320kbps
Год выпуска: 2016
Страна: All World
Жанр: Electro House
Продолжительность: 04:28:38
Описание:

Tracklist
01. Phorsicht - Phreude [03:37]
02. Prash - Bring That Bass (Extended Mix) [04:48]
03. Sebastien Nox - O_B_O [04:46]
04. Jamie My Angel - Runaway with Me (Radio Version) [03:35]
05. Nymer - Killoz (Radio Mix) [03:12]
06. Marco Stage - Celebration [03:51]
07. Tommy Lazer - Whatever Happened (Radio Edit) [03:24]
08. Pirostica - Be My Girl (House Version) [03:03]
09. Melbourne Freaks - Trumpet Bounce (Extended Mix) [04:39]
10. Tildbros - She Knows (Festival Edit) [05:00]
11. DJ Dnk - You Cant Stop Me (ft Nika Dostur) [04:26]
12. Eddy Chrome - Feel It in Your Soul (Vocal Mix) [05:31]
13. Freaky DJs - History (Max Exers Remix) (ft Serge Tyagnyriadno) [04:44]
14. Mad Doxx - Smash the Place [04:01]
15. Tosch - Raise Em Up (Shortcut Version) [02:37]
16. United States of Dance - We Are the Night (Extended Mix) [04:57]
17. Housenumberone United - House Number One (United Mix) [04:38]
18. Mydca - Do You Feel My Love (Extended Mix) [04:22]
19. Skipp - Like a Photo (Short Mix) [03:03]
20. Aaron the Baron - Waiting in the Darkness (DJane My Canaria Club Mix) (ft Mia Lemar) [06:37]
21. California Sun - Touch the Sky (The Cardionauts Edit) [03:38]
22. Tomas Balaz - Muted Love [05:38]
23. Mike Goldberg - Truss [04:36]
24. Manast - Coverage [04:06]
25. Afrochuck - The Dirty Workout Plan (Extended Cardio Mix) [04:48]
26. Jad Peak - Denon [04:06]
27. Raw Cole - Future Summer (Club Mix) [04:08]
28. Pearls of Ibiza - I Live My Life (Mykel Mars Instrumental Edit) [05:28]
29. Naxwell - Fade to Grey (Native U Remix) [05:20]
30. Luke Meyers - Play House (Vocal Edit) [05:41]
31. Darryl Wendell - The Silence of Atlantis (Long Mix) [08:35]
32. Diego Farfan And 3d Music - Drop the Gun [02:48]
33. Roy Albi - Back to the Roots [06:57]
34. Miss Karine And Axel G - Wonderland [09:30]
35. Dario Synth vs_ Matt3w - Doppelganger [04:08]
36. Bootmasters - Last Summer (Visioneight Remix) (ft Trevor Jackson) [04:31]
37. Maglido - Mighty [05:02]
38. DJ Ariel Style - Glow (ft Mella) [04:03]
39. Syntheticsax - New Way Home [06:41]
40. Bardalimov - Beloved (Radio Edit) [03:19]
41. Proezas - Stars [04:07]
42. Jaydee - Five Days (Hoxton Whores Progressive Remix) [06:31]
43. Scape Eleven And Frank Manhattan Jr_ - Filthy Bass (Club Mix) [04:44]
44. The Soul Elephant - Gero [05:50]
45. Sugapop - Elysion (Extended Mix) [04:56]
46. Discomaus - Running (Fit for Sound Instrumental Remix) [05:12]
47. Invisible Tune - The Bridge (Movie Mix) [03:59]
48. Yohan Peralta - Oxygen [05:14]
49. Lairdriver - Into the White [05:54]
50. Dmitry Rise - Stars Light [06:13]
51. CMatt - Reminiscenes [05:54]
52. Gjc - On the Floor [05:04]
53. Newton B - Cosmic Trip [06:27]
54. Kalardiak - Podium [04:02]
55. Fritzbeat - Your Hero (Radio Version) [03:33]
56. Tribe of Bass - The Guru (Beydagi Edit) [03:34]

VA - Progressive House & Trance Vol 4 [2016, Trance, Progressive, MP3]
2016-05-30 19:22
VA - Progressive House & Trance Vol 4
Формат: MP3, tracks, 320kbps
Год выпуска: 2016
Страна: All World
Жанр: Trance, Progressive
Продолжительность: 02:32:51
Описание:

1. 12Saturnus - Thats Me [3:24]
2. Akit. Lab - Red Sunrise [6:08]
3. Alex Ch. - Hurricane [3:04]
4. Alex Greenhouse - Rain [3:32]
5. Anlight - To World [7:11]
6. Anton Seim - Black And White [5:48]
7. Astiom - Complexity [7:45]
8. Baintermix - Louvre [8:00]
9. Chemical Poison - Jupiter5 [5:38]
10. Daar Odenbach - Suspense [5:06]
11. Dave Silence - Infinitely Happy [4:53]
12. David Tamamyan - State of Mind [5:51]
13. Difo - We Are All Connected [6:14]
14. DJ Amigo - Summer Time [6:33]
15. DJ Grewcew - Fun [3:49]
16. DreamSystem - 51re14 [5:38]
17. Dredd DJ - Prizma [5:07]
18. Dreisy J - Sentimental [7:10]
19. Duviosonic - Stars [3:40]
20. Juan Pablo Torres - Wall of Sound [5:30]
21. Liam 24 - Nupanda [5:21]
22. Oleg Quantize - A Game Without Rules [4:09]
23. Roman Babanov - Puppet Tetras [4:50]
24. Schastye - Simple Truth [7:49]
25. Sergey Pilipenko - Impression [4:37]
26. Sergey Shvets - Auster [5:23]
27. Spellrise - In the Blue Sky [5:08]
28. St Acid - Voices Inside [5:36]

VA - Macrolab Minimal [2016, Minimal, Tech House, MP3]
2016-05-30 19:20
VA - Macrolab Minimal
Формат: MP3, tracks, 320kbps
Год выпуска: 2016
Страна: All World
Жанр: Minimal, Tech House
Продолжительность: 04:29:52
Описание:

Tracklist
01. Draud - Elektroid (Original Mix) [06:16]
02. Nacim Ladj & Nasimus - Smoke Weed (Original Mix) [06:47]
03. Tintil - Rock'N'Roll (Original Mix) [05:53]
04. Nacim Ladj - Master Of Puppets (Original Mix) [06:19]
05. Tintil - Contigo (Original Mix) [06:59]
06. Narkan - Monster (Original Mix) [06:34]
07. Chkheto - Colourless (Original Mix) [09:16]
08. Except - Monster (Original Mix) [08:15]
09. Fat Legs - Ladies (Original Mix) [06:44]
10. DJ KoT - Xenta (Original Mix) [06:40]
11. Freaidmund Zig - Back to Reallity (Original Mix) [06:25]
12. Nacim LaDJ - Froggy (Original Mix) [07:52]
13. Nacim Ladj - Money For Nothing (Original Mix) [07:31]
14. Zarzan - Reverse Engineering (Original Mix) [04:44]
15. Draud - Heartwork (Original Mix) [07:15]
16. Nacim LaDJ - I Just Dropped In (Original Mix) [07:02]
17. DJ Julian Jaks - Back Kiss (Original Mix) [05:40]
18. Tintil - Opium Monster (Original Mix) [07:11]
19. Nacim LaDJ - Give It To Me (Original Mix) [07:09]
20. Fat Legs - Black Girl (Original Mix) [06:22]
21. Maguta - Minimal Particle (Original Mix) [05:31]
22. Melazeta - Squirt (Original Mix) [08:40]
23. Rodrigo Diaz - Mani (Original Mix) [07:27]
24. Valyo - First Emotions (Original Mix) [06:39]
25. Tintil - Husky (Original Mix) [06:23]
26. Freidmund Zig - Demon (Original Mix) [06:21]
27. Narkan - Glory (Original Mix) [06:46]
28. Chkheto - Orgasm (Original Mix) [06:16]
29. Nacim Ladj & Hsu - The Executioner (Original Mix) [07:16]
30. Nacim Ladj & Irakli Chkhetia - Papilina (Original Mix) [07:01]
31. Nacim Ladj & Tintil - Technomania (Original Mix) [06:49]
32. Nacim Ladj - Desert (Original Mix) [07:08]
33. Nacim Ladj - Dehollah (Original Mix) [06:01]
34. Nasimus - Bird Of Pray (Original Mix) [06:22]
35. Antonio Barez - Russian Balalayka (Original Mix) [06:57]
36. Tintil - Let The Beat Drop (Original Mix) [06:34]
37. Nacim Ladj - At The Club (Original Mix) [05:55]
38. Draud - Natalya (Original Mix) [06:16]
39. Gallary - The Clock (Original Mix) [07:12]
40. Gayvarovsky - Other Side (Original Mix) [05:49]

Демон. Книга 2. Шаг в преисподню (Горъ Василий) [2016, Фантастика, аудиокнига, AAC, 128kbps, M4B, Гинатуллин Рустам]
2016-05-30 19:12
Демон. Книга 2. Шаг в преисподнюю



Формат: аудиокнига, AAC, 128kbps
Автор: Горъ Василий
Год выпуска: 2016
Жанр: Фантастика
Издательство: СамопалЪ
Исполнитель: Гинатуллин Рустам
Продолжительность: 13:42:31


Описание:
Космические сражения между людьми и напавшими на планеты Земной Конфедерации Циклопами становятся все яростнее. Все труднее сдерживать силы агрессоров пилотам подразделения «Демон», какую бы тактику они ни придумывали, сколько бы ни тренировались. Ведь и их модифицированные организмы имеют предел прочности и выносливости. А до того момента, когда «великолепную девятку» поддержат выпускники второй очереди проекта, еще надо продержаться. Однако выясняется, что самые опасные враги у Виктора Волкова и его команды – вовсе не пресловутые Циклопы. Не считаясь с войной, преследующие свои интересы политики готовят Демонам ловушку, от которой не уберегут ни мужество, ни сила, ни отвага…

От автора: Хочется выразить искреннюю благодарность моим уважаемым Читателям — А. Борячинскому, Agata Li, kroha_ru, Zgar, rill, Ронин, dw и многим-многим другим за то, что не позволяли мне отлынивать от творчества и ускоряли процесс написания этой книги. Отдельное спасибо Вячеславу Семичеву за нелегкий труд литературного спарринг-партнера…



Вшитая обложка: есть
Разбитие на главы: есть
Версия в MP3: http://tfile.co/forum/viewtopic.php?t=798957


Цикл Демон

1. Демон
2. Шаг в преисподнюю
3. Изгнанники
4. Перемирие
5. Ход Конём





VA - 100 Best Gold Trap & Bass Tracks [2016, Dirty Dubstep, Trap, Grime, MP3]
2016-05-30 19:11
VA - 100 Best Gold Trap & Bass Tracks
Формат: MP3, tracks, 320kbps
Год выпуска: 2016
Страна: All World
Жанр: Dirty Dubstep, Trap, Grime
Продолжительность: 06:04:03
Описание:

Tracklist
001. NextRO - Ruteki (Original Mix) [04:59]
002. DeFreight - Ophiuchus (Original Mix) [04:32]
003. Monstex - Anubis (Original Mix) [05:21]
004. Rvncord - Africana (Original Mix) [04:54]
005. The Provence - Shaking (Original Mix) [03:16]
006. Loonykid - Bomboclat (Original Mix) [03:37]
007. Kastyell - Khan (Original Mix) [03:08]
008. Recvst - Domination (Original Mix) [02:41]
009. ZipZap - Big Pool (Private Mix) [02:14]
010. Nuar - Take This (Original Mix) [03:32]
011. DeFreight - Black Horror (Original Mix) [05:13]
012. Krillaz - Big Return (Original Mix) [03:13]
013. JokerFed - U-Jin (Original Mix) [03:57]
014. Sinistez - Kanto (Original Mix) [04:05]
015. DeFreight - Dead Abyss (Original Mix) [03:56]
016. HollowCube - Fuck Ya (Original Mix) [03:32]
017. Mackie Boy - Horror (Vip Mix) [04:07]
018. Beenbee - Trapions (Original Mix) [03:34]
019. DeFreight - Dark Planet (Original Mix) [05:09]
020. Raemz - Got Money (Original Mix) [04:37]
021. Keny Nvils - Blackout (Original Mix) [03:06]
022. Dumb - Bass In Face VIP (Original Mix) [03:03]
023. The Provence - Swing (Original Mix) [03:44]
024. Kostjen - Geek (Original Mix) [04:35]
025. DeFreight - C.R.O.W (Original Mix) [03:59]
026. NextRO - Devotion (Original Mix) [03:42]
027. Biz - Young (CRVCK JVCK, NextRO Remix) [03:26]
028. Widestereoz - To Sun (Original Mix) [03:37]
029. KLVMP - Get Ready (Original Mix) [02:21]
030. Sneek - Yeah! (Original Mix) [03:51]
031. Dumb - Low (Original Mix) [02:52]
032. Feel My Pulse - African Life (Original Mix) [05:44]
033. Poddsy - Fakeface (Original Mix) [03:35]
034. Cvnnvbis - Thunder (Original Mix) [02:07]
035. Wedjat - Amro (Original Mix) [03:48]
036. Kastyell - Desert Storm (Original Mix) [03:33]
037. LiKo - Red (Original Mix) [03:06]
038. NextRO - Limbo (Original Mix) [04:19]
039. The Provence - Tram Pam Pam Pam (Trap Butirat) (W0rmsth Light Edit) [03:08]
040. ZipZap - Hi (Original Mix) [03:46]
041. T!MTVPE - Take This Out (Original Mix) [02:41]
042. Keny Nvils - God (Original Mix) [03:04]
043. The Provence - Bvdmvn (Original Mix) [03:03]
044. Feel My Pulse - F!ck All Y'all Haters (Original Mix) [04:01]
045. White Noise - 8 Bit History (Original Mix) [03:45]
046. Feel My Pulse - OMG (Original Mix) [03:04]
047. The Provence - Campita (Original Mix) [04:07]
048. Keny Nvils - Flute (Original Mix) [03:38]
049. DeFreight - Swarm (Original Mix) [04:09]
050. Krillaz - Youth (Original Mix) [02:45]
051. KLVMP - Swag (Original Mix) [03:03]
052. Flexy - Sura (Original Mix) [03:33]
053. Behr $quad - What You Need (Original Mix) [03:32]
054. NextRO - Revolt (Original Mix) [03:57]
055. Kostjen - Nerd (Original Mix) [03:32]
056. Tprl Crwn - Dmndz (Original Mix) [03:33]
057. Sub Culture - Streets of Shanghai (Original Glith Hop Mix) [03:04]
058. Recvst - You Think About It (Original Mix) [02:52]
059. Nuar - KRD (Original Mix) [02:47]
060. Zipzap - Trolla (Original Mix) [04:04]
061. HollowCube - Crandy KuSh [Hardtrap M8] (Original Mix) [03:04]
062. Sinistez - Safari (Original Mix) [03:36]
063. Rvncord - Turning In The Block (Original Mix) [05:04]
064. Legbore - Thicket (Original Mix) [03:06]
065. Keny Nvils - Twerk Police (Original Mix) [03:41]
066. Limetone - Witchcraft (Original Mix) [04:13]
067. Poddsy - White Emptiness (Original Mix) [03:03]
068. Recvst - Don't (Original Mix) [03:18]
069. LiKo - King Cannon (Original Mix) [03:26]
070. Nuar - Shprot (Original Mix) [03:06]
071. KLVMP - MoonRay (Original Mix) [03:23]
072. Maik Zet - Sahara (Original Mix) [03:05]
073. Keny Nvils - Trap Nation (Original Mix) [04:41]
074. Poddsy - Black Clouds (Original Mix) [02:47]
075. The Provence - Experiences (Original Mix) [03:32]
076. Nuar - MITG (Original Mix) [03:30]
077. Behr $quad - Jump (Original Mix) [03:21]
078. KLVMP - BLVCK Magic (Original Mix) [03:14]
079. Harber Dust - Superman (Original Mix) [04:55]
080. Loonykid - P.I.M.P (Original Mix) [03:18]
081. Legbore - Wassup (Original Mix) [03:29]
082. LiKo - Tastiest Towns (Original Mix) [03:33]
083. The Provence - Disturb (Original Mix) [03:36]
084. Vladees - Dubai (Original Mix) [05:08]
085. ZipZap - Shtanga (Original Mix) [03:31]
086. Loonykid - Big Black Boots (Original Mix) [03:54]
087. Nuar - Improvized (Original Mix) [02:57]
088. Mackie Boy - Tyts (Original Mix) [03:21]
089. Kastyell - Bloody Money (Original Mix) [03:13]
090. Poddsy - Mirk (Original Mix) [03:50]
091. DeFreight - DesArt (Original Mix) [04:20]
092. Rautu - Get Up (Original Mix) [03:13]
093. Liberty - Dancefire (Original Mix) [03:40]
094. The Provence - Demmanawash (Original Mix) [04:09]
095. Cvnnvbis - C17h19no3 (Original Mix) [03:03]
096. Biz - Malayalam (Original Mix) [04:54]
097. NextRO - Infected (Original Mix) [04:14]
098. Feel My Pulse - Everybody Dancing (Original Mix) [04:10]
099. The Provence - Wouf Fuck (Original Mix) [03:13]
100. Harber Dust - Bloodthirsty Dog (Original Mix) [02:53]