Последние новости

Брайтон-бич авеню (Андрей Молчанов) [2014, Детектив, аудиокнига, MP3, 96kbps, Светлана Раскатова]
2014-10-24 19:46
Брайтон-бич авеню
Формат: аудиокнига, MP3, 96kbps
Автор: Андрей Молчанов
Год выпуска: 2014
Жанр: Детектив
Издательство: Нигде не купишь
Исполнитель: Светлана Раскатова
Продолжительность: 05:28:26
Описание:
Семен Фридман ехал в своем "кадиллаке" под эстакадой сабвея по Брайтон Бич авеню. Как всегда в этот утренний час, движение здесь было плотным, машины ползли практически в одном левом ряду - правый крайний и средний заполонили грузовики, приехавшие с товаром для магазинов и легковушки нарушавших правила парковки покупателей, привлеченных дешевыми распродажами в здешних лавочках, примыкающих одна к другой на протяжении всей улицы, вернее улочки, - двухэтажной, сумеречной от широкого навеса подземки, пройти которую из конца в конец пятнадцать-двадцать минут; улочки, подобных которой в Нью-Йорке великое множество по окраинам Бронкса, Куинса, да и того же Бруклина.

Доп. информация:
Прочитано по изданию: М.: Молодая гвардия, 1991
Год оцифровки: 2014
Очищено: sky4all
Обработано: knigofil
Обложка: Вася с Марса

Отважная / Mardaani (Прадип Саркар ) [2014, боевик, триллер, драма, HDRip] MVO
2014-10-24 19:45
Отважная / Mardaani

Перевод: Любительский (многоголосый закадровый), субтитры: Русские (полные и на песни)
Формат: HDRip, AVI, XviD, AC3
Страна: Индия
Режиссер: Прадип Саркар
Жанр: боевик, триллер, драма
Продолжительность: 01:54:18
Год выпуска: 2014
В ролях: Рани Мукхерджи, Тахир Радж Бхасин, Джишу Сенгупта, Санджай Танеджа, Анил Джордж

Описание: Старший инспектор отдела полиции Мумбаи по борьбе с организованной преступностью Шивани Шиваджи Рой наделена безграничной отвагой и неподкупностью. Глава мафии, специализирующейся на торговле детьми совершает ошибку — похищает девочку-подростка Пьяри, торгующую цветами на улице, которая очень дорога семье Шивани, где к ней относятся как к дочери. Когда Пьяри не появляется несколько дней, Шивани понимает, что с ней что-то случилось. В поисках девушки, Шивани приходится столкнуться с миром упадка и разврата, жестоких желаний и эксплуатации детей.




Видео: 720x304 (2.37:1), 24.000 fps, XviD MPEG-4 ~1855 kbps avg, 0.35 bit/pixel
Аудио #1: Русский 48 kHz, AC3 Dolby Digital, 3/2 (L,C,R,l,r) + LFE ch, ~640 kbps Любительский (многоголосый закадровый)
Аудио #2: Хинди 48 kHz, AC3 Dolby Digital, 2/0 (L,R) ch, ~224 kbps Оригинал

Comedy Баттл. Суперсезон. Этап 2. Выпуск №8 (Эфир от 24.10.2014) (ТНТ) [2014, ТВ-шоу, юмор, WEBRip]
2014-10-24 19:43
Comedy Баттл. Суперсезон. Этап 2. Выпуск №8 (Эфир от 24.10.2014)
Перевод: Не требуется, cубтитры: отсутствуют
Формат: WEBRip, AVI, XviD, MP3
Страна: Россия
Режиссер: ТНТ
Жанр: ТВ-шоу, юмор
Продолжительность: 00:47:35
Год выпуска: 2014

В ролях: Семен Слепаков, Сергей Светлаков, Гарик Мартиросян

Описание: «Comedy Баттл. Суперсезон» - это почти 200 участников, прошедших кастинги в Саратове, Воронеже, Ростове-на-Дону, Нижнем Новгороде, Екатеринбурге, Иркутске, Красноярске, Омске, Санкт-Петербурге, Москве, Киеве и Минске. Многие из участников уже хорошо знакомы телезрителям ТНТ по участию в прошлых сезонах.

Видео: 720x400 (1.80:1), 25 fps, XviD MPEG-4 ~1800 kbps avg, 0.25 bit/pixel
Аудио: 44 kHz, MPEG Layer 3, 2 ch, ~128,00 kbps avg

«Линия Сталина» (4 серии из 4) (Олег Четвериков) [2013, документальный, война, история, SATRip]
2014-10-24 19:34
«Линия Сталина» (4 серии из 4)
Перевод: Не требуется, cубтитры: отсутствуют
Формат: SATRip, AVI, DivX, MP3
Страна: Россия, ОАО «ТРК ВС РФ «ЗВЕЗДА»
Режиссер: Олег Четвериков
Жанр: документальный, война, история
Продолжительность: 4 х ~ 00:39:10
Год выпуска: 2013
Описание:
К концу 20-х годов Европу начинала охватывать настоящая фортификационная лихорадка. Во многих странах в том или ином виде создавались укрепленные полосы. Во Франции «Линия Мажино» должна была протянуться на 400 километров. В Финляндии возводилась «Линия Маннергейма». В Германии – «Линия Зигфрида». Впервые историки и эксперты рассуждают в эфире о роли укрепленных районов в первые месяцы войны.

Видео: 704x528 (1.33:1), 25 fps, DivX5, ~ 1795 kbps avg, 0.193 bit/pixel
Аудио: 48 kHz, MPEG Layer 3, 2 ch, ~192.00 kbps avg
Тех. данные файлов идентичны.

Доп. информация:
Спасибо автору рипа alf62

MI
Linija.Stalina.2013.DivX.SATRip.alf62\Linija.Stalina.(1.serija.iz.4).Betonomanija.2013.DivX.SATRip.alf62.avi
Формат : AVI
Формат/Информация : Audio Video Interleave
Размер файла : 563 Мбайт
Продолжительность : 39 м.
Общий поток : 1997 Кбит/сек
Программа кодирования : VirtualDubMod 1.5.10.3 | www.virtualdub-fr.org || (build 2550/release)
Библиотека кодирования : VirtualDubMod build 2550/release

Видео
Идентификатор : 0
Формат : MPEG-4 Visual
Профиль формата : Advanced Simple@L5
Параметр BVOP формата : 2
Параметр QPel формата : Нет
Параметр GMC формата : Без точки перехода
Параметр матрицы формата : Default (MPEG)
Идентификатор кодека : DX50
Идентификатор кодека/Подсказка : DivX 5
Продолжительность : 39 м.
Битрейт : 1795 Кбит/сек
Ширина : 704 пикселя
Высота : 528 пикселей
Соотношение сторон : 4:3
Частота кадров : 25,000 кадров/сек
Цветовое пространство : YUV
Субдискретизация насыщенности : 4:2:0
Битовая глубина : 8 бит
Тип развёртки : Прогрессивная
Метод сжатия : С потерями
Бит/(Пиксели*Кадры) : 0.193
Размер потока : 506 Мбайт (90%)
Библиотека кодирования : XviD 73

Аудио
Идентификатор : 1
Формат : MPEG Audio
Версия формата : Version 1
Профиль формата : Layer 3
Идентификатор кодека : 55
Идентификатор кодека/Подсказка : MP3
Продолжительность : 39 м.
Вид битрейта : Постоянный
Битрейт : 192 Кбит/сек
Каналы : 2 канала
Частота : 48,0 КГц
Метод сжатия : С потерями
Размер потока : 54,1 Мбайт (10%)
Выравнивание : Соединение по промежуткам
Продолжительность промежутка : 40 мс. (1,00 видеокадр)
Время предзагрузки промежутка : 504 мс.
Библиотека кодирования : LAME3.99r
Настройки программы : -m s -V 4 -q 0 -lowpass 18.6 -b 192
Содержание
1. Бетономания
В СССР началась самая масштабная стройка. Бетонные сооружения протянулись больше чем на тысячу километров. В Советском Союзе эту оборонительную систему называли просто - укрепрайоны. На западе она получила звучное имя «Линия Сталина».

2. Стратегия и тактика
Обладая малочисленной армией, советская Россия имела самую протяженную сухопутную границу в мире. Казалось, надежно прикрыть ее столь малыми силами невозможно. Но военные теоретики смогли создать план построения эффективной обороны. В его основу легли укрепрайоны «Линии Сталина».

3. Трагедия Минского укрепленного района
Как вышло, что на центральном направлении советская оборона была разрушена в считанные дни? Почему Минский укрепленный район оказался брошен, а «линия Молотова» была прорвана за один день - 22 июня 1941 года? О стратегических ошибках руководства Красной Армии эксперты всего мира спорят уже 70 лет. Сомнений нет лишь в том, что в этой истории героями оказались гарнизоны многочисленных ДОТов, которые несмотря ни на что исполняли последний приказ и помнили о данной присяге.

4. Полоцкий рубеж
Июнь 1941 года... На Севере в полном соответствии с «планом Барбаросса», Вермахт вытеснял Красную армию из Прибалтики. На Юге немцы продвигались вглубь Украины. Но главный удар был направлен через Белоруссию на Смоленск и далее на Москву. При этом на взятие Полоцка армии генерала Гота отводилось не более 3-х дней. Так почему же на рубеже Полоцкого укрепленного района она задержались на месяц, и что привело в итоге к срыву «плана Барбаросса».

Hello from USSR [2014, Arcade]
2014-10-24 19:34
Hello from USSR
Год выпуска: 2014
Жанр: Arcade
Разработчик: Zumaction, Inc.
Издательство: Zumaction, Inc.
Сайт разработчика: Unknown
Язык интерфейса: Русский + Английский
Платформа: PC
Системные требования: ОС: Windows 95/98/ME/2000/XP/2003/vista/7/8
ОЗУ: 512 Мб
Процессор: 1800 МГц
Видео: 256 Мб
Звуковая карта: совместимая с Direct X
Место на жестком диске: 200 Мб
Описание: Данный сборник содержит отличные виртуальные аналоги разных известных советских игр, таких, как гонки "За рулём", ведь в неё обожали играть все, увлекательные "Пятнашки", настольная игра "Путешествие", симулятора баскетбола, шахмат, шашек. В сборник входят такие игры, как: за Рулём, Trip, Пятнашки, Basketball Simulator, Chess, Chess-2,Checkers.
Доп. информация: 1. Запустить установочный файл
2. Следовать инструкции по установке
3. Установить
4. Играть

Comedy Woman (Эфир от 24.10.2014) (ТНТ) [2014, ТВ-шоу, юмор, SATRip]
2014-10-24 19:34
Comedy Woman (Эфир от 24.10.2014)
Перевод: Не требуется, cубтитры: отсутствуют
Формат: SATRip, AVI, XviD, MP3
Страна: Россия
Режиссер: ТНТ
Жанр: ТВ-шоу, юмор
Продолжительность: 00:44:47
Год выпуска: 2014
В ролях: Наталья Еприкян, Екатерина Скулкина, Екатерина Варнава, Мария Кравченко, Полина Сибагатуллина, Екатерина Баранова, Татьяна Морозова, Елена Борщёва, Наталия Медведева, Надежда Сысоева, Надежда Ангарская, Марина Федункив

Описание: Пока мужчины меняют зимнюю резину в автосервисах, девушки из ComedyWoman меняют формат шоу. В новом сезоне комеди-дамы покажут все, на что они способны и остановить их не сможет никто... Даже ОН! Ведь в рамках предвыборной кампании хорошего жениха в гости ComedyWoman заглянет Второй Человек в нашей стране! Теперь в Comedy Woman всех ожидает все на 100% женское, ведь не считая Дмитрия Хрусталева на сцене и в зале будут только дамы. Впрочем, будут и исключения. Фишкой нового сезона станут новые костюмы, специально разработанные для девчонок одним модным дизайнером. Теперь в нарядах будет больше секса, а на сцене больше женских ног, которые ранее тщательно скрывались за длинными юбками. Кроме этого зрители увидят и новые декорации в стиле «Алиса в стране чудес»
Популярное шоу Сomedy Woman теперь становится на 100% женским! Здесь все по-новому: еще больше секса, голых ног, эротичных костюмов, жарких шуток, веселых закулисных перебранок и никаких мужчин даже в зале! Разве что Дмитрий Хрусталев останется и парочка очень важных персон заглянет...


Видео: 720x400 (1.80:1), 25 fps, XviD MPEG-4 ~1800 kbps avg, 0.25 bit/pixel
Аудио: 48 kHz, MPEG Layer 3, 2 ch, ~128,00 kbps avg

Камеди Клаб в Сочи. Выпуск 1 (Эфир от 24.10.2014) / Comedy Club (ТНТ) [2014, ТВ-шоу, юмор, SATRip]
2014-10-24 19:27
Камеди Клаб в Сочи. Выпуск 1 (Эфир от 24.10.2014) / Comedy Club
Перевод: Не требуется, cубтитры: отсутствуют
Формат: SATRip, AVI, XviD, MP3
Страна: Россия
Режиссер: ТНТ
Жанр: ТВ-шоу, юмор
Продолжительность: 00:45:35
Год выпуска: 2014
В ролях: Гарик Мартиросян, Вадим Галыгин, Павел Воля, Тимур Батрутдинов, Александр Ревва, Гавр, Олег Верещагин, Дмитрий Сорокин, Зураб Матуa, Андрей Аверин, Алексей Лихницкий, Роман Юнусов, Антон Лирник, Андрей Молочный, Александр Незлобин, Дмитрий Хрусталёв, Васильев Виктор, Сергей Бессмертный, Александр Незлобин, Игорь Меерсон, Семён Слепаков, Михаил Галустян

Описание: «Comedy Club» был создан в 2005 году командой КВН «Новые армяне», в состав которой входили Артур Джанибекян, Артак Гаспарян, Артур Тумасян, Арташес Саркисян, Гарик Мартиросян и другие. Его идея была задумана ещё в 2001 году, когда Арташес Саркисян, побывав в США, увидел местный «Comedy Club». Временами стали появляться новые участники «Comedy Club», в основном из КВН. 23 апреля 2005 года «Comedy Club» впервые вышел в эфир телеканала ТНТ. Рейтинги программы стали бить все рекорды и это приносило программе большие доходы, на которые они стали делать другие проекты. Впоследствии они создали свою продюсерскую компанию «Comedy Club Production». 15 апреля 2007 года на ТНТ был показан сотый выпуск программы. Регулярно выходят новые выпуски и другие проекты - например спецвыпуски на Первом канале, юмористические фестивали и продюсирование участниками «Comedy Club» проекты других телепередач. 23 апреля 2010 года «Comedy Club» вышло с новой музыкой и обновлённым оформлением. Также «Comedy Club» выходит на каналах ICTV, НТВ+ - Мир и Comedy TV.
Как всегда, Comedy Club собрал все самое смешное, чтобы оставаться самым крутым юмористическим шоу на телевидении. Камеры готовы? Музыканты готовы? Зрители готовы? Поехали!


Видео: 720x400 (1.80:1), 25 fps, XviD MPEG-4 ~1800 kbps avg, 0.25 bit/pixel
Аудио: 48 kHz, MPEG Layer 3, 2 ch, ~128,00 kbps avg

Королева бандитов (2 сезон: 1-16 серии из 16) (Дмитрий Кузьмин) [2014, криминальная мелодрама, SATRip]
2014-10-24 19:19
Королева бандитов (2 сезон: 1-16 серии из 16)
Перевод: Не требуется, cубтитры: отсутствуют
Формат: SATRip, AVI, DivX, MP3
Страна: Россия, Кинокомпания "Русское"
Режиссер: Дмитрий Кузьмин
Жанр: криминальная мелодрама
Всего серий: 16
Продолжительность: 16 x ~00:44:00
Год выпуска: 2014
В ролях: Екатерина Кузнецова, Роман Полянский, Елена Сафонова, Александр Дьяченко, Юрий Устюгов, Артур Бичахчян, Пётр Томашевский, Юрий Елагин, Ольга Павловец, Анна Казючиц, Ангелина Притуманова, Софья Хурсан, Денис Варенов, Олег Пыхонин, Алина Бабак, Даниил Коновалов, Александр Никольский, Сергей Иванюк, Сергей Комаров, Иван Непомнящий, Алексей Овсянников, Анастасия Шаповал
Описание:
Полина, красивая и чистая сельская девушка, ждет из армии своего любящего жениха Сергея. К несчастью, Сергей не единственный, кому нужна Полина – хозяин рынка, непререкаемый авторитет Буров, тоже положил глаз на цветущую соседку. Вероятно, эта история могла бы разрешиться, если бы матери Полины не потребовалась срочная дорогостоящая операция. Оказавшись перед тяжелым выбором, героиня выходит замуж за Бурова, который ей ненавистен..



Видео: 720х400 (16:9), 25 fps, DivX Codec 5.x or 6.x ~1602 kbps avg, 0.223 bit/pixel
Аудио: 48 kHz, MPEG Layer 3, 2 ch, ~128.00 kbps avg

MI
Общее
Полное имя : C:\Users\Admin\Downloads\Koroleva.banditov\Koroleva.banditov.2.01.avi
Формат : AVI
Формат/Информация : Audio Video Interleave
Размер файла : 545 Мбайт
Продолжительность : 43 м.
Общий поток : 1743 Кбит/сек
Программа кодирования : transcode-1.1.5

Видео
Идентификатор : 0
Формат : MPEG-4 Visual
Параметр BVOP формата : Да
Параметр QPel формата : Нет
Параметр GMC формата : Без точки перехода
Параметр матрицы формата : Default (H.263)
Идентификатор кодека : DX50
Идентификатор кодека/Подсказка : DivX 5
Продолжительность : 43 м.
Битрейт : 1602 Кбит/сек
Ширина : 720 пикселей
Высота : 400 пикселей
Соотношение сторон : 16:9
Частота кадров : 25,000 кадров/сек
Цветовое пространство : YUV
Субдискретизация насыщенности : 4:2:0
Битовая глубина : 8 бит
Тип развёртки : Прогрессивная
Метод сжатия : С потерями
Бит/(Пиксели*Кадры) : 0.223
Размер потока : 501 Мбайт (92%)
Библиотека кодирования : Intel(R) MPEG-4 encoder based on Intel(R) IPP 6.1 build 137.20[6.1.137.763]

Аудио
Идентификатор : 1
Формат : MPEG Audio
Версия формата : Version 1
Профиль формата : Layer 3
Режим : Joint stereo
Расширение режима : MS Stereo
Идентификатор кодека : 55
Идентификатор кодека/Подсказка : MP3
Продолжительность : 43 м.
Вид битрейта : Постоянный
Битрейт : 128 Кбит/сек
Каналы : 2 канала
Частота : 48,0 КГц
Метод сжатия : С потерями
Размер потока : 40,0 Мбайт (7%)
Выравнивание : Соединение по промежуткам
Продолжительность промежутка : 24 мс. (0,60 видеокадр)
Время предзагрузки промежутка : 48 мс.
Библиотека кодирования : LAME3.98.2

[PSP] Wall-E [2008, Adventure]
2014-10-24 19:03
[PSP] Wall-E
Год выпуска: 2008
Жанр: Adventure
Разработчик: Asobo Studio
Издательство: THQ
Сайт разработчика: www.thq.com
Язык интерфейса: RUS
Платформа: PSP

Системные требования: Тестировал на 5.00 М33-6

Описание: Компьютерная игра для детей и их родителей создана по мотивам одноименного анимационного фильма Disney/Pixar. Представьте, что человечеству пришлось покинуть Землю. Единственный, кто уцелел за 700 лет, прошедших с этого драматичного момента, - маленький робот. Неунывающий ВАЛЛ-И соберет веселую компанию забавных персонажей, включая домашнего питомца таракана и команду сломанных роботов-неудачников. Добрая история, придуманная авторами хорошо известных фильмов "Рататуй" и "В поисках Немо", придется по вкусу всем, не зависимо от возраста и эстетических предпочтений.

Доп. информация:
1.Скачайте файл.
2.Подключите PSP к компьютеру при помощи USB шнура.
3.Скопируйте ISO/CSO образ игры в папку ISO на карте памяти.
4.Запускайте игру из меню ИГРА.

Скорпион, 1 сезон 1-5 серия из 12 / Scorpion [IdeaFilm] (Гэри Фледер, Дуайт Х. Литтл, Бобби Рот) [2014, боевик, драма, WEB-DLRip-AVC, P]
2014-10-24 18:53
Скорпион, 1 сезон 1-5 серия из 12 / Scorpion
«Эта команда - чистый гений»

Перевод: Профессиональный (многоголосый закадровый) [IdeaFilm]
Cубтитры: отсутствуют
Формат: WEB-DLRip (AVC), MKV, H.264, AC3
Страна: США
Режиссер: Гэри Фледер, Дуайт Х. Литтл, Бобби Рот
Жанр: боевик, драма
Всего серий: 12
Продолжительность: 5 x ~ 00:42:00
Год выпуска: 2014

В ролях: Элиес Габел, Кэтрин МакФи, Роберт Патрик, Эри Стидэм, Эдди Кэй Томас, Джейдин Вонг, Эмили Робинсон, Даниэль Цолгхадри, Майкл Дж. Сильвер, Эрик Авари

Описание:
Сюжет основан на реальных событиях.
Это история об эксцентричном гении и его группе вундеркиндов, которые являются аналитическим центром, работающим на службу национальной безопасности. Их задача - разбираться со сложными угрозами современности...


Рейтинг на:


Видео: 1024х576 (1.77:1), 23,976 fps, AVC (х264), Main@L3.1, ~2000 Kbps avg, 0.131 bit/pixel
Аудио: 48.0 kHz, AC3 Dolby Digital, 6 channels (Front: L C R, Side: L R, LFE), ~384 kbps avg

Доп. информация: звук перевода и оригинальная дорожка Dolby Digital 5.1 [IdeaFilm]
Полноэкранное изображение (16:9)

MediaInfo
Общее
Уникальный идентификатор : 138613589431310273639775115397696691821 (0x6848019A27CD1D7C6FFA4D9CFCE19E6D)
Полное имя : D:\Video\...\scorpion_s01e01_[tfile.me].mkv
Формат : Matroska
Версия формата : Version 2
Размер файла : 706 Мбайт
Продолжительность : 43 м.
Общий поток : 2288 Кбит/сек
Дата кодирования : UTC 2014-09-26 19:04:09
Программа кодирования : Lavf54.63.104
Библиотека кодирования : Lavf54.63.104

Видео
Идентификатор : 1
Формат : AVC
Формат/Информация : Advanced Video Codec
Профиль формата : Main@L3.1
Параметр CABAC формата : Да
Параметр ReFrames формата : 1 кадр
Идентификатор кодека : V_MPEG4/ISO/AVC
Продолжительность : 43 м.
Битрейт : 2000 Кбит/сек
Ширина : 1024 пикселя
Высота : 576 пикселей
Соотношение сторон : 16:9
Режим частоты кадров : Постоянный
Частота кадров : 23,976 кадра/сек
Цветовое пространство : YUV
Субдискретизация насыщенности : 4:2:0
Битовая глубина : 8 бит
Тип развёртки : Прогрессивная
Бит/(Пиксели*Кадры) : 0.131
Размер потока : 573 Мбайт (81%)
Библиотека кодирования : x264 core 129
Настройки программы : cabac=1 / ref=1 / deblock=1:0:0 / analyse=0x1:0x131 / me=dia / subme=2 / psy=1 / psy_rd=1.00:0.00 / mixed_ref=0 /

me_range=16 / chroma_me=1 / trellis=0 / 8x8dct=0 / cqm=0 / deadzone=21,11 / fast_pskip=1 / chroma_qp_offset=0 / threads=4 / lookahead_threads=1 / sliced_threads=0 /

nr=0 / decimate=1 / interlaced=0 / bluray_compat=0 / constrained_intra=0 / bframes=0 / weightp=2 / keyint=250 / keyint_min=25 / scenecut=40 / intra_refresh=0 /

rc_lookahead=40 / rc=abr / mbtree=1 / bitrate=2000 / ratetol=1.0 / qcomp=0.60 / qpmin=10 / qpmax=51 / qpstep=4 / ip_ratio=1.41 / aq=1:1.00
Default : Да
Forced : Нет

Аудио
Идентификатор : 2
Формат : AC-3
Формат/Информация : Audio Coding 3
Расширение режима : CM (complete main)
Параметр Endianness формата : Big
Идентификатор кодека : A_AC3
Продолжительность : 43 м.
Вид битрейта : Постоянный
Битрейт : 384 Кбит/сек
Каналы : 6 каналов
Расположение каналов : Front: L C R, Side: L R, LFE
Частота : 48,0 КГц
Битовая глубина : 16 бит
Метод сжатия : С потерями
Размер потока : 118 Мбайт (17%)
Default : Да
Forced : Нет
Список серий

1 серия - Пилотная серия
2 серия - Циклон / A Cyclone
3 серия - Единственный пункт неудачи /Single Point of Failure
4 серия - Плутоний навсегда / Plutonium Is Forever
5 серия - В меньшинстве / Shorthanded
6 серия - Истинные цвета / True Colors
Внимание! Раздача ведётся путём добавления новых серий. Добавлена 5-я серия

При каждом добавлении новой серии создается новый торрент-файл. Чтобы начать докачку новой серии, пользователям необходимо сделать следующее:
(1) остановить скачивание
(2) удалить старый торрент у себя из клиента (старые серии удалять не надо)
(3) скачать новый торрент и запустить его у себя в клиенте вместо старого, при этом указать клиенту путь в старую папку куда и должно происходить скачивание новых серий.

Ваша программа (например UTorrent) при этом должена произвести хеширование (проверку) старой папки (если не производит сама - помогите ему сделать это), и будет докачивать только те серии которых у вас ещё нет. Старые серии при этом не удаляются, а продолжают раздаваться (Важно!)

Eсли вы уже удалили старые серии, то предотвратить повторную закачку старых серий можно, отжав галочку в соответствующих местах при запуске нового торрента. По возможности, желательно не удалять старые серии как можно дольше, чтобы релизёр не столько продолжал раздавать старые серии, а смог сконцентрироваться на новых

The Ultimate Fighter Latin America: : Team Velasquez vs. Team Werdum S01E01-09 [2014, ММА, WEBRip]
2014-10-24 18:52
The Ultimate Fighter Latin America: : Team Velasquez vs. Team Werdum
Перевод: Испанский, cубтитры: Английские



Формат: WEBRip, MP4, H.264, AAC


Страна: США


Участники: Бойцы ММА


Вид спорта: ММА


Язык комментариев: Испанский


Описание: The Ultimate Fighter: Latin America (also known as The Ultimate Fighter: Team Velasquez vs. Team Werdum) is an upcoming installment of the Ultimate Fighting Championship (UFC)-produced reality television series The Ultimate Fighter. It is the seventh series to be produced primarily for markets outside the United States.

The series was officially announced by the UFC in April 2014, shortly after Fabricio Werdum defeated Travis Browne to earn a title shot against Cain Velasquez. The coaches will be Velasquez and number-one contender Werdum and the series will culminate with their bout at UFC 180 on November 15, 2014 at Arena Ciudad de México in Mexico City. This season will feature eight featherweight and eight bantamweight competitors, four in each class representing Mexico and Latin America (not including fighters from Brazil, which has it's own TUF). Filming began in May 2014 in Las , Nevada, with the series scheduled to debut in August 2014.

In May 2014, the cast of fighters participating on the show was announced. Eight fighters were chosen for both Team Velasquez and Team Werdum to represent Mexico and Latin America, respectively.



Автор рипа/записи: ViLLAiNS


The Ultimate Fighter Latin America

1 Эпизод

Дата эфира: 16.08.2014

Продолжительность: 00:38:50

Видео: MPEG4 Video (H264) 720x404 30fps 1159kbps

Аудио: AAC 48000Hz stereo 128kbps



2 Эпизод

Дата эфира: 21.08.2014

Продолжительность: 00:40:59

Видео: MPEG4 Video (H264) 720x404 30fps 1329kbps

Аудио: AAC 48000Hz stereo 128kbps



3 Эпизод

Дата эфира: 27.08.2014

Продолжительность: 00:40:47

Видео: MPEG4 Video (H264) 720x404 15fps 1243kbps

Аудио: AAC 48000Hz stereo 128kbps



4 Эпизод

Дата эфира: 16.09.2014

Продолжительность: 00:41:57

Видео: MPEG4 Video (H264) 720x404 29.97fps 1472kbps

Аудио: AAC 44100Hz stereo 125kbps



5 Эпизод

Дата эфира: 17.09.2014

Продолжительность: 00:41:20

Видео: MPEG4 Video (H264) 720x404 29.97fps 1500kbps

Аудио: AAC 44100Hz stereo 128kbps



6 Эпизод

Дата эфира: 24.09.2014

Продолжительность: 00:41:20

Видео: MPEG4 Video (H264) 720x404 29.97fps 1500kbps

Аудио: AAC 44100Hz stereo 128kbps



7 Эпизод

Дата эфира: 01.10.2014

Продолжительность: 00:41:20

Видео: MPEG4 Video (H264) 720x404 29.97fps 1500kbps

Аудио: AAC 44100Hz stereo 128kbps



8 Эпизод

Дата эфира: 14.10.2014

Продолжительность: 00:41:20

Видео: MPEG4 Video (H264) 720x404 29.97fps 1500kbps

Аудио: AAC 44100Hz stereo 128kbps



9 Эпизод

Дата эфира: 21.10.2014

Продолжительность: 00:41:20

Видео: MPEG4 Video (H264) 720x404 29.97fps 1500kbps

Аудио: AAC 44100Hz stereo 128kbps






Добавлены 5,6,7,8,9 эпизод


Внимание! Раздача ведется путем добавления новых эпизодов

VA - Sunlover Records Compilation Vol. 1 - Italo Disco is Back! [2014, Italo Disco, MP3]
2014-10-24 18:47
VA - Sunlover Records Compilation Vol. 1 - Italo Disco is Back!
Формат: MP3, tracks, 320kbps
Год выпуска: 2014
Страна: All World
Жанр: Italo Disco
Продолжительность: 01:40:13
Описание:

01. VHS Dreams - Space Race [05:34]
02. RetroSynther - Technocity [06:04]
03. Les Chic Voltage - Disco Gallo 84 [03:20]
04. Apollo Zapp feat. Reo - Hula Hoop! [03:03]
05. Plaisance - Non Parlo Italiano [04:36]
06. Sally Shapiro - Lives Together (Tommy '86 Remix) [05:36]
07. Andy Fox feat. Laura - Fly Away [05:53]
08. A Space Love Adventure - Discoman [04:25]
09. Starforce - Riva Del Garda [04:32]
10. Batch Sound feat. SHIO-Z - Freedom Of Heart (12-inch 45 rpm) [04:19]
11. Mild Peril - Samurai's Theme [05:36]
12. Starion - Silver Shadow [05:18]
13. SHIO-Z feat. Claudia Ortolani - 32° Fahrenheit [04:44]
14. VHS Glitch - Cala Rossa [05:25]
15. Vincenzo Salvia feat. Giusi Telesca - Domenica [04:09]
16. Highway Superstar - Red Star 91 [03:02]
17. Blazestation - Explorers of Love [03:07]
18. WLDV (We Love Dolce Vita) - Bluethunder [05:44]
19. Andy Romano - La Galassia [08:31]
20. Ryan Paris - I Wanna Love You Once Again [07:08]

Неудержимые 3 / The Expendables 3 (Патрик Хьюз) [2014, боевик, триллер, приключения, HDRip] DUB + MVO
2014-10-24 18:46
Неудержимые 3 / The Expendables 3

Перевод: Профессиональный (полное дублирование)[звук с TS], субтитры: отсутствуют
Формат: HDRip, AVI, XviD, AC3
Страна: США
Режиссер: Патрик Хьюз
Жанр: боевик, триллер, приключения
Продолжительность: 02:06:16
Год выпуска: 2014
В ролях: Сильвестр Сталлоне, Джейсон Стэйтем, Джет Ли, Антонио Бандерас, Уэсли Снайпс, Дольф Лундгрен, Мэл Гибсон, Харрисон Форд, Арнольд Шварценеггер, Ронда Раузи
Описание: Барни, Кристмас и остальные члены команды сходятся лицом к лицу с Конрадом Стоунбэнксом, многие годы назад основавшем вместе с Барни команду «Неудержимых». Впоследствии Стоунбэнкс становится безжалостным торговцем оружием и тем самым превращается в человека, которого Барни было поручено убить. Или по крайней мере он сам так считал. Теперь Стоунбэнкс, один раз уже сумевший обмануть смерть, поставил себе цель покончить с «Неудержимыми» — но у Барни на этот счет свои планы. Барни решает, что в его борьбе «свежий» подход можно противопоставить старым методам, и пополняет ряды людьми, которые моложе, быстрее и технически более подкованные. Так у членов команды «Неудержимых» начинается новая эра. Последняя миссия превращается в столкновение между представителями классической старой школы и экспертами в высоких технологиях.



Видео: 720x304 (2.37:1), 23.976 fps, XviD build 50 ~1277 kbps avg, 0.22 bit/pixel
Аудио #1: Русский:48 kHz, AC3 Dolby Digital, 2/0 (L,R) ch, ~192 kbpss[Профессиональный (полное дублирование) [звук с TS]]
Аудио #2: Русский: 48 kHz, AC3 Dolby Digital, 2/0 (L,R) ch, ~192 kbps[Профессиональный (многоголосый закадровый) [Baibako] ]

Королева бандитов (2 сезон 1-14 серии из 16) (Дмитрий Кузьмин) [2014, криминал, мелодрама, HDTVRip 720p]
2014-10-24 18:46
Королева бандитов (2 сезон 1-14 серии из 16)
Перевод: Не требуется, cубтитры: отсутствуют
Формат: HDTVRip 720p, MKV, H.264, AC3
Страна: Россия, кинокомпания "Русское"
Режиссер: Дмитрий Кузьмин
Жанр: криминал, мелодрама
Всего серий: 16
Продолжительность: 14 x ~00:50:00
Год выпуска: 2014
В ролях: Екатерина Кузнецова (IV), Роман Полянский, Елена Сафонова, Александр Дьяченко, Юрий Устюгов, Артур Бичахчян, Петр Томашевский, Юрий Елагин, Ольга Павловец, Анна Казючиц, Ангелина Притуманова, Софья Хурсан, Денис Варенов, Олег Пыхонин, Алина Бабак, Даниил Коновалов, Александр Никольский (II), Сергей Иванюк, Сергей Комаров (II), Иван Непомнящий, Алексей Овсянников, Анастасия Шаповал

Описание: Семейное счастье Полины Поливановой оказывается недолгим: Гриша трагически погибает, Татку забирают в приют, а саму героиню выселяют из служебной квартиры и выгоняют с работы. Полина впадает в отчаяние: она остается одна без средств к существованию, и помощи ей ждать неоткуда. Пытаясь найти хоть какой-то выход, девушка решает отыскать друга Козыря «Сашу Грозу из Ярославля», чьё имя выгравировано на подаренном ей перстне. Вскоре героиня находит таинственного друга, но, вопреки ожиданиям, Сашей-Грозой оказывается женщина. Она привечает Полину в своём доме, не посвятив девушку, какие тайны хранит их страшный посёлок. Полине предстоит жить под одной крышей с вдовой серьёзного бандита и ее сыном – красавцем, прозванным Принцем, узнать тайны загадочного Лесника, по слухам, убившего свою жену, и вызвать ненависть соратника Принца – Палача. Каждый здесь ведет свою игру, и Полине придется разобраться в запутанной и опасной головоломке, чтобы найти единственно верный выход…



Видео: 1280х720 (16:9), 25 fps, AVC MPEG-4 (x264), High@L4.1 ~ 4826 kbps avg, 0.21 bit/pixel
Аудио: 48 kHz, AC3 Dolby Digital, 2/0 (L,R) ch, ~192 kbps

Внимание! Раздача ведётся путём добавления новых серий !!!
Внимание! Раздача ведётся путём добавления новых серий; при каждом добавлении создаётся новый торрент. Чтобы начать докачку новой серии, пользователям необходимо сделать следующее:
(1) остановить скачивание,раздачу,
(2) удалить старый торрент у себя из клиента (старые серии удалять не надо),
(3) скачать новый торрент и запустить его у себя в клиенте вместо старого, при этом указать клиенту путь в старую папку куда и должно происходить скачивание новых серий.
Ваш клиент при этом должен произвести хеширование (проверку) старой папки (если не производит сами - помогите ему сделать это), и будет докачивать только те серии которых у вас ещё нет. Старые серии при этом не удаляются, а продолжают раздаваться!
Eсли вы уже удалили старые серии, то предотвратить повторную закачку старых серий можно, отжав галочку в соответствующих местах при запуске нового торрента. По возможности, желательно не удалять старые серии как можно дольше чтобы релизёр не столько продолжал раздавать старые серии, а смог сконцентрироваться на новых.
MediaInfo
Общее

Полное имя : F:\Фильмы торренты\Koroleva.Banditov-2.2014.HDTVRip.(720p).MediaClub\Koroleva.Banditov-2.(01.seriya.iz.16).2014.HDTVRip.(720p).MediaClub.mkv
Формат : Matroska
Версия формата : Version 2
Размер файла : 1,56 Гбайт
Продолжительность : 44 м.
Общий поток : 5020 Кбит/сек
Дата кодирования : UTC 2014-10-21 00:22:07

Видео
Идентификатор : 1
Формат : AVC
Формат/Информация : Advanced Video Codec
Профиль формата : High@L4.1
Параметр CABAC формата : Да
Параметр ReFrames формата : 8 кадров
Идентификатор кодека : V_MPEG4/ISO/AVC
Продолжительность : 44 м.
Битрейт : 4826 Кбит/сек
Ширина : 1280 пикселей
Высота : 720 пикселей
Соотношение сторон : 16:9
Режим частоты кадров : Постоянный
Частота кадров : 25,000 кадров/сек
Цветовое пространство : YUV
Субдискретизация насыщенности : 4:2:0
Битовая глубина : 8 бит
Тип развёртки : Прогрессивная
Бит/(Пиксели*Кадры) : 0.209
Размер потока : 1,47 Гбайт (94%)

Аудио
Идентификатор : 2
Формат : AC-3
Формат/Информация : Audio Coding 3
Расширение режима : CM (complete main)
Параметр Endianness формата : Big
Идентификатор кодека : A_AC3
Продолжительность : 44 м.
Вид битрейта : Постоянный
Битрейт : 192 Кбит/сек
Каналы : 2 канала
Расположение каналов : Front: L R
Частота : 48,0 КГц
Битовая глубина : 16 бит
Метод сжатия : С потерями
Размер потока : 60,9 Мбайт (4%)
Default : Да
Forced : Нет

Неудержимые 3 / The Expendables 3 (Патрик Хьюз) [2014, боевик, триллер, приключения, HDRip] DUB+MVO
2014-10-24 18:44
Неудержимые 3 / The Expendables 3

Перевод: Профессиональный (полное дублирование)[звук с TS], субтитры: отсутствуют
Формат: HDRip, AVI, XviD, AC3
Страна: США
Режиссер: Патрик Хьюз
Жанр: боевик, триллер, приключения
Продолжительность: 02:06:16
Год выпуска: 2014
В ролях: Сильвестр Сталлоне, Джейсон Стэйтем, Джет Ли, Антонио Бандерас, Уэсли Снайпс, Дольф Лундгрен, Мэл Гибсон, Харрисон Форд, Арнольд Шварценеггер, Ронда Раузи
Описание: Барни, Кристмас и остальные члены команды сходятся лицом к лицу с Конрадом Стоунбэнксом, многие годы назад основавшем вместе с Барни команду «Неудержимых». Впоследствии Стоунбэнкс становится безжалостным торговцем оружием и тем самым превращается в человека, которого Барни было поручено убить. Или по крайней мере он сам так считал. Теперь Стоунбэнкс, один раз уже сумевший обмануть смерть, поставил себе цель покончить с «Неудержимыми» — но у Барни на этот счет свои планы. Барни решает, что в его борьбе «свежий» подход можно противопоставить старым методам, и пополняет ряды людьми, которые моложе, быстрее и технически более подкованные. Так у членов команды «Неудержимых» начинается новая эра. Последняя миссия превращается в столкновение между представителями классической старой школы и экспертами в высоких технологиях.



Видео: 720x304 (2.37:1), 23.976 fps, XviD build 50 ~1947 kbps avg, 0.32 bit/pixel
Аудио #1: Русский:48 kHz, AC3 Dolby Digital, 2/0 (L,R) ch, ~192 kbpss[Профессиональный (полное дублирование) [звук с TS]]
Аудио #2: Русский: 48 kHz, AC3 Dolby Digital, 2/0 (L,R) ch, ~192 kbps[Профессиональный (многоголосый закадровый) [Baibako] ]

Ограбление на Бейкер-Стрит / The Bank Job (Роджер Дональдсон ) [2008, триллер, драма, криминал, BDRip] DUB
2014-10-24 18:43
Ограбление на Бейкер-Стрит / The Bank Job

Перевод: Профессиональный (полное дублирование), субтитры: отсутствуют
Формат: BDRip, AVI, XviD, AC3
Страна: США
Режиссер: Роджер Дональдсон
Жанр: триллер, драма, криминал
Продолжительность: 01:52:01
Год выпуска: 2008
В ролях: Джейсон Стэйтем, Саффрон Берроуз, Стивен Кэмпбелл Мур, Дэниэл Мейс, Джеймс Фолкнер, Алки Дэвид, Майкл Джибсон, Джорджия Тейлор, Ричард Линтерн, Питер Боулз
Описание: Фильм основан на реальных событиях, происходивших в Великобритании в 1971 году. После 35 лет забвения мы наконец узнаем об одном из самых легендарных ограблений банка в истории Великобритании, когда не было произведено ни одного ареста и не было найдено ни малейшего следа похищенных денег.

Налёт на банк на Бейкер Стрит был инициирован высокопоставленными официальными лицами, пытающимися добраться до заветной банковской ячейки, в которой хозяйка одного из известнейших борделей Лондона хранила секретную информацию. Теперь запрет на разглашение информации об этом ограблении снят британским правительством, и перед нами открывается красочная, лихо закрученная история, полная тайн, сюрпризов и неожиданных поворотов.




Видео: 720x400 (1.80:1), 24 fps, XviD build 50 ~2020 kbps avg, 0.29 bit/pixel
Аудио #1: Русский: 48 kHz, AC3 Dolby Digital, 3/2 (L,C,R,l,r) + LFE ch, ~448 kbps [Профессиональный Дублированный]
Аудио #2: Английский: 48 kHz, AC3 Dolby Digital, 3/2 (L,C,R,l,r) + LFE ch, ~448 kbps [Оригинал]

MI
Код:
The Bank Job.2008.Open Matte.XviD.BDRip.Deadmauvlad.avi
Формат : AVI
Формат/Информация : Audio Video Interleave
Профиль формата : OpenDML
Размер файла : 2,28 Гбайт
Продолжительность : 1 ч. 51 м.
Общий поток : 2923 Кбит/сек
Название фильма : The Bank Job.2008.Open Matte.XviD.BDRip.Deadmauvlad
Режиссёр : Deadmauvlad
Жанр : боевик, триллер, драма
Программа кодирования : VirtualDubMod 1.5.10.3 | www.virtualdub-fr.org || (build 2550/release)
Формат оригинала/Имя : Фильм

Видео
Идентификатор : 0
Формат : MPEG-4 Visual
Профиль формата : Advanced Simple@L5
Параметр BVOP формата : 2
Параметр QPel формата : Да
Параметр GMC формата : Без точки перехода
Параметр матрицы формата : Выборочная
Идентификатор кодека : XVID
Идентификатор кодека/Подсказка : XviD
Продолжительность : 1 ч. 51 м.
Битрейт : 2009 Кбит/сек
Ширина : 720 пикселей
Высота : 400 пикселей
Соотношение сторон : 16:9
Частота кадров : 24,000 кадра/сек
Цветовое пространство : YUV
Субдискретизация насыщенности : 4:2:0
Битовая глубина : 8 бит
Тип развёртки : Чересстрочная
Порядок развёртки : Нижнее поле первое
Метод сжатия : С потерями
Бит/(Пиксели*Кадры) : 0.291
Размер потока : 1,57 Гбайт (69%)
Библиотека кодирования : XviD 1.2.1 (UTC 2008-12-04)

Аудио #1
Идентификатор : 1
Формат : AC-3
Формат/Информация : Audio Coding 3
Расширение режима : CM (complete main)
Параметр Endianness формата : Big
Идентификатор кодека : 2000
Продолжительность : 1 ч. 51 м.
Вид битрейта : Постоянный
Битрейт : 448 Кбит/сек
Каналы : 6 каналов
Расположение каналов : Front: L C R, Side: L R, LFE
Частота : 48,0 КГц
Битовая глубина : 16 бит
Метод сжатия : С потерями
Размер потока : 358 Мбайт (15%)
Выравнивание : Разделение по промежуткам
Продолжительность промежутка : 42 мс. (1,00 видеокадр)
Время предзагрузки промежутка : 500 мс.

Аудио #2
Идентификатор : 2
Формат : AC-3
Формат/Информация : Audio Coding 3
Расширение режима : CM (complete main)
Параметр Endianness формата : Big
Идентификатор кодека : 2000
Продолжительность : 1 ч. 51 м.
Вид битрейта : Постоянный
Битрейт : 448 Кбит/сек
Каналы : 6 каналов
Расположение каналов : Front: L C R, Side: L R, LFE
Частота : 48,0 КГц
Битовая глубина : 16 бит
Метод сжатия : С потерями
Размер потока : 358 Мбайт (15%)
Выравнивание : Разделение по промежуткам
Продолжительность промежутка : 42 мс. (1,00 видеокадр)
Время предзагрузки промежутка : 500 мс.

Заражение. Вакцина для двоих. Коллекционное издание [2014, квест, поиск предметов]
2014-10-24 18:41
Заражение. Вакцина для двоих. Коллекционное издание

Год выпуска: 2014
Жанр: квест, поиск предметов
Разработчик: Gogii Games
Издательство: Alawar
Сайт разработчика: www.gogiigames.com/
Язык интерфейса: Русский
Платформа: РС

Системные требования:
* ОС: ХР, Виста,7
* ЦПУ: 2,0 Ггц
* ОЗУ: 1024 МБ
* Видео: 256 МБ
* DirectX
*HDD: 600 МБ свободного места

Описание: Новый вирус распространился по всему Оксфорду и теперь вся местность находится на строгом карантине. Вы, профессор, должны отправиться в город на поиски пропавшей девочки и единственной надежды человечества побороть эту страшную инфекцию. Загадка вируса и ключ к вакцине от него можно искать только в ДНК выжившей девочки. Но осторожно, не только вы вернулись в город.
Путешествуйте по 220 разнообразным локациям, прототипом которых служили реальные города и окрестности, исследуйте новый уникальный режим поиска предметов, насладитесь увлекательным Бонус контентом!

Особенности коллекционного издания:
- Встроенное прохождение
- Обои для рабочего стола
- Бонусная глава


Доп. информация:
Полная версия: поставь и играй

Сказочное путешествие мистера Бильбо Беггинса Хоббита (Владимир Латышев) [1985, фэнтези, DVDRip]
2014-10-24 18:40
Сказочное путешествие мистера Бильбо Беггинса Хоббита
Формат: DVDRip, AVI, XviD, MP3
Режиссер: Владимир Латышев
Жанр: фэнтези
Продолжительность: 01:11:52
Год выпуска: 1985

В ролях: Зиновий Гердт, Михаил Данилов, Иван Краско, Алексей Кожевников, Анатолий Равикович, Николай Гаврилов, Георгий Корольчук, Михаил Кузнецов, Кирилл Датешидзе, Владимир Козлов

Описание: Сказочное путешествие мистера Бильбо Беггинса, хоббита, через Дикий край, Черный лес, за Туманные горы туда и обратно.



Видео: 720x544 (1.32:1), 25 fps, XviD build 46 ~2396 kbps avg, 0.24 bit/pixel
Аудио: 48 kHz, MPEG Layer 3, 2 ch, ~192.00 kbps avg

Дополнительная информация
Это воссозданная ПОЛНАЯ версия телеспектакля, скомпонованная из различных частей двух разных неполных версий (DVD-издания и телеверсии последних лет, записанной со спутникового телеканала "Ностальгия"). За основу было взято DVD-издание, куда были вставлены недостающие части, взятые с записи с телеканала "Ностальгия."

Теория Большого Взрыва, 8 сезон 1-6 серии из 24 / The Big Bang Theory [Кураж-Бамбей] (Чак Лорри, Билл Прэди) [2014, комедия, HDTVRip, P1]
2014-10-24 18:37
Теория Большого Взрыва / The Big Bang Theory
8 сезон (1-6 серии из 24)

Перевод: Профессиональный одноголосый [Кураж-Бамбей]

Субтитры: русские (внешние, .srt)

Формат: HDTVRip, AVI, XviD, MP3

Страна: США

Режиссер: Чак Лорри, Билл Прэди

Жанр: комедия

Всего серий: 24

Продолжительность: 6 x 00:23:00

Год выпуска: 2014

В ролях: Джим Парсонс (Шелдон), Кейли Куоко (Пенни), Джонни Галэки (Леонард), Кунал Нэйэр (Радж), Саймон Хелберг (Говард), Мелисса Рауш (Бернадетт), Майем Биэлик (Эми)

Описание: Два блестящих физика, Леонард и Шелдон, «великие умы», которые понимают, как «работает вселенная». Но их гениальность ничуть не помогает им общаться с людьми, особенно с женщинами. Всё начинает меняться, когда напротив них поселяется красавица Пенни.

Когда Леонард и Шелдон встречают Пенни, Леонард сразу же начинает интересоваться ею. Он видит в общении с Пенни огромную перспективу, вплоть до любви, однако Шелдон понимает, что мечтам его друга не суждено сбыться.

Стоит также отметить пару странных друзей этих физиков: Воловец, который любит употреблять фразы на разных языках, включая русский, и Раджеш Кутрапали, теряющий дар речи при виде женщин.


_________________

Видео: 720x400 (1.76:1), 23.976 fps, XviD build 50 ~1500 kbps avg, 0.23 bit/pixel

Аудио RUS: 48 kHz, MPEG Layer 3, 2 ch, ~128.00 kbps avg
Аудио ENG: 48 kHz, MPEG Layer 3, 2 ch, ~128.00 kbps avg

Внимание! Раздача ведётся путём добавления новых серий
Внимание! Раздача ведётся путём добавления новых серий; при каждом добавлении создаётся новый торрент. Чтобы начать докачку новой серии, пользователям необходимо сделать следующее:
(1) остановить скачивание,
(2) удалить старый торрент у себя из клиента (старые серии удалять не надо),
(3) скачать новый торрент и запустить его у себя в клиенте вместо старого, при этом указать клиенту путь в старую папку куда и должно происходить скачивание новых серий.

Ваш клиент при этом должен произвести хеширование (проверку) старой папки (если не производит сам - помогите ему сделать это), и будет докачивать только те серии которых у вас ещё нет. Старые серии при этом не удаляются, а продолжают раздаваться!

Eсли вы уже удалили старые серии, то предотвратить повторную закачку старых серий можно, отжав галочку в соответсвующих местах при запуске нового торрента. По возможности, желательно не удалять старые серии как можно дольше чтобы релизёр не столько продолжал раздавать старые серии, а смог сконцентрироваться на новых.

VA - Amnezia Autumn Hits [2014, House, Club House, Dance, Euro Dance, MP3]
2014-10-24 18:35
VA - Amnezia Autumn Hits
Формат: MP3, tracks, 320kbps
Год выпуска: 2014
Страна: All World
Жанр: House, Club House, Dance, Euro Dance
Продолжительность: 03:47:12
Описание:

Треклист

01. Adrima & Vinylshakerz - In My Dreams (Adrima Edit)
02. Aeons Ago - Celebrate The Beat (Chudazz Edit)
03. Alex Megane ft. Cvb - Tide Is High (Original Edit)
04. Alexia - Number One (L-Siska Bootleg)
05. Alle Farben ft. Graham Candy - Sometimes
06. Aly & Fila meets Roger Shah ft. Sylvia Tosun - Eye 2 Eye
07. Armin Van Buuren - Hystereo (Radio Edit)
08. Astoria ft. Victoria Kern & Pitbull - Show Me What You Got (Bodybangers Edit)
09 .Avicii ft. Robbie Williams -The Days (Radio Edit)
10. Basic Element & Taz - Someone Out There
11. Basslovers United ft. D.A.D - Never Let You Down (Hands Up Edit)
12. Bodybangers ft. Menno - Like That (Radio Edit)
13. Both - Straight Outta Line (Radio Edit)
14. Calvin Harris ft. John Newman - Blame
15. Carl Fath ft. Steve Edwards - Humans Cry (Leo Curiale Edit)
16. Cascada ft. Tris - Madness (Dj Gollum ft. Dj Cap Edit)
17. Commercial Club Crew - Perfect Day (Radio Edit)
18. Cosmic Gate ft. Kristina Antuna - Alone (Radio Edit)
19. Crazibiza & Chris Willis - Lonely One (Radio Edit)
20. Da Buzz - Bring Back The Summer (Sterotype Radio Edit)
21. Dancefloor Devils vs Infected Culture - One Second (Hands Up Edit)
22. David Guetta ft. Sam Martin - Dangerous
23. Deorro ft. Dycy - Five Hours (Don't Hold Me Back) (Vocal Mix)
24. Dimitri Vegas & Like Mike vs WW - Waves (Radio Mix)
25. Dj Antoine vs Mad Mark ft. Temara Melek & Euro - Go With Your Heart
26. Dj Assad & Greg Parys - We Are One (Radio Edit)
27. Dj Shog - Hide & Seek (Children 2014) (Original Edit)
28. Dj Tht ft. Angel Lyne - Santiano (Radio Edit)
29. DVBBS & Joey Dale ft. Delora - Deja Vu (Radio Edit)
30. Fajah Lourens - Melodies (Radio Edit)
31. Fedde Le Grand & Di-Rect - Where We Belong
32. Funky Therapy - Jump! (Into The Blue) (Mason Tyler Edit)
33. Galantis - Runaway (U & I)
34. GrooveBusterz & Slayback - Better Place (Radio Mix)
35. Guenta K - No No No (Please Dont Go)
36. Chris Decay ft. Ella - Superstar (Radio Edit)
37. Inna - Take Me Higher
38. Jay Frog - Duele El Amor (Radio Edit)
39. Killmode - The Countdown (Radio Edit)
40. Magic Affair - Hear The Voices (Radio Mix)
41. Magic Juice ft. Jyolo & Dj Sava - I Wanna Rock (Radio Edit)
42. Makj with M35 - Go! (Showtek Edit)
43. Marc Lime & K Bastian ft. Captain Hollywood - Heat (Turn Me On) (2-4 Grooves Edit)
44. Marco Van Basken ft. Charlee - I Am The Night (Ti-Mo Edit)
45. Martin Garrix & MOTi - Virus (How About Now) (Radio Edit)
46. Nesh Up - Funky Beats (Original Edit)
47. Nicky Romero & Vicetone - Let Me Feel
48. Nitro & La Melodia - Me Tienes Loco (Radio Edit)
49. Nrd1 vs Gianluca Motta & Dr. Space ft. Sam Stray - Work (Radio Edit)
50. Overtune - Your Spirit Is Shining (Dj Fait Edit)
51. Plasdance - Heartbeat (Hands Up Radio Edit)
52. Pulsedriver & Rocco - Life On Mars (Single Mix)
53. Rameez ft. Djane Housekat - Girls In Luv (Radio Edit)
54. Raven Kleekamp - Running On Ice (Vocal Edit)
55. Rene Rodrigezz ft. Hellen Vissers - Better Where We Are
56. Robin Schulz ft. Jasmine Thompson - Sun Goes Down (Radio Mix)
57. Romantico Latino - Opaye (Geo Da Silva & Jack Mazzoni Radio Mix)
58. Ryan T. & Dan Winter ft. Kaytee - Cool Your Engines (Hands Up Edit)
59. Scooter & Vassy - Today (Radio Edit)
60. Scotty ft. Enveray - Long Story Short (Bodybangers Edit)
61. Shaun Bate ft. Sam Walkertone - Alive (Dj Gollum & Empyre One Edit)
62. Sick Individuals - Lost & Found (Original Mix)
63. Slazy ft. J-Sun - Enemy (Axel F) (Mason Tyler Edit)
64. Swanky Tunes ft. Raign - Fix Me (Radio Edit)
65. Ti-Mo - Envelope (Radio Edit)
66. TJR ft. Dances With White Girls - Ass Hypnotized