Новости: Результаты онлайн опроса: "Холодная война"

Последние новости

Новый Инициал «Ди» / New Initial D Movie / Shin Gekijouban Initial D (Масамицу Хидака) [Movie] [1 из 3] [RAW][RUS(int)+JAP][2014, спорт, приключения, BDRip] [720p]
2015-03-27 17:34
Новый Инициал «Ди» / New Initial D Movie / Shin Gekijouban Initial D


Перевод: Любительский (одноголосый)
Хардсаб: отсутствует
Формат: BDRip, MKV, H.264, AC3
Страна: Япония
Режиссер: Масамицу Хидака
Жанр: спорт, приключения
Продолжительность: Movie (3 эп.), 65 мин.
Год выпуска: 2014

Озвучка: FassaD

Описание: Уличные гонщики RedSuns вызывают на дружественную гонку местную команду г. Акина SpeedStars. Увидев способности RedSuns, гонщики SpeedStars задумались о том, как быть не униженными на домашней трассе. SpeedStars попали в безвыходное положение, когда их гонщик попал в аварию во время тренировки. Икэтани услышал от своего оффисного менеджера о том, что быстрейшей на спуске Акины является AE86 владельца магазина тофу. Также он узнал, что владелец магазина, Фудзивара Бунта, был уличным гонщиком с великой репутацией в молодые годы, известным как «Призрак Акины». Икетани попросил старика занять его место в заезде против RedSuns. Когда пришел день состязания, сын Бунты Такуми появился на Trueno отца.



Видео: 1280x720, 23.976fps, AVC MPEG4 (H.264), High 10@L4.0 , ~ 2150Kbps avg
Аудио#1: Rus AC3, 48.0KHz, 6ch, ~ 640Kbps avg
Аудио#2: Jap AC3, 48.0KHz, 6ch, ~ 640Kbps avg

MediaInfo
Общее
Уникальный идентификатор : 192298065330729037595262967773572705998 (0x90AB429E398A9465AB3B8E43FEB92ECE)
Полное имя : F:\FIFA 08\04 - Полномежки\2015\20 - Инициал «Ди» Заключительный этап - Легенда (2014)\Озвученно\[FanDub]_Initial_D_-_Legend_[01]_[720p_h264]_[FassaD].mkv
Формат : Matroska
Версия формата : Version 4 / Version 2
Размер файла : 1,57 Гбайт
Продолжительность : 1 ч. 2 м.
Общий поток : 3596 Кбит/сек
Название фильма : Initial D - Legend 1 (Kebangkitan)
Дата кодирования : UTC 2015-02-15 09:34:21
Программа кодирования : mkvmerge v6.1.0 ('Old Devil') built on Mar 4 2013 09:10:42
Библиотека кодирования : libebml v1.3.0 + libmatroska v1.4.0
Attachment : Yes / Yes / Yes / Yes / Yes / Yes / Yes / Yes / Yes / Yes / Yes / Yes / Yes

Видео
Идентификатор : 1
Формат : AVC
Формат/Информация : Advanced Video Codec
Профиль формата : High 10@L4.0
Параметр CABAC формата : Да
Параметр ReFrames формата : 8 кадров
Идентификатор кодека : V_MPEG4/ISO/AVC
Продолжительность : 1 ч. 2 м.
Ширина : 1280 пикселей
Высота : 720 пикселей
Соотношение сторон : 16:9
Режим частоты кадров : Постоянный
Частота кадров : 23,976 кадра/сек
Цветовое пространство : YUV
Субдискретизация насыщенности : 4:2:0
Битовая глубина : 10 бит
Тип развёртки : Прогрессивная
Заголовок : H.264 - 10bit
Библиотека кодирования : x264 core 142 r2431 ac76440
Настройки программы : cabac=1 / ref=8 / deblock=1:1:1 / analyse=0x3:0x133 / me=umh / subme=10 / psy=1 / psy_rd=0.70:0.15 / mixed_ref=1 / me_range=24 / chroma_me=1 / trellis=2 / 8x8dct=1 / cqm=0 / deadzone=21,11 / fast_pskip=0 / chroma_qp_offset=-4 / threads=12 / lookahead_threads=2 / sliced_threads=0 / nr=0 / decimate=1 / interlaced=0 / bluray_compat=0 / constrained_intra=0 / bframes=8 / b_pyramid=2 / b_adapt=2 / b_bias=0 / direct=3 / weightb=1 / open_gop=0 / weightp=2 / keyint=240 / keyint_min=22 / scenecut=40 / intra_refresh=0 / rc_lookahead=60 / rc=crf / mbtree=1 / crf=17.0 / qcomp=0.60 / qpmin=0 / qpmax=81 / qpstep=4 / ip_ratio=1.40 / aq=1:1.00
Язык : Indonesian
Default : Да
Forced : Нет

Аудио #1
Идентификатор : 2
Формат : AC-3
Формат/Информация : Audio Coding 3
Расширение режима : CM (complete main)
Параметр Endianness формата : Big
Идентификатор кодека : A_AC3
Продолжительность : 1 ч. 2 м.
Вид битрейта : Постоянный
Битрейт : 640 Кбит/сек
Каналы : 6 каналов
Расположение каналов : Front: L C R, Side: L R, LFE
Частота : 48,0 КГц
Битовая глубина : 16 бит
Метод сжатия : С потерями
Размер потока : 287 Мбайт (18%)
Заголовок : 5.1 FassaD
Default : Да
Forced : Нет

Аудио #2
Идентификатор : 3
Формат : AC-3
Формат/Информация : Audio Coding 3
Расширение режима : CM (complete main)
Параметр Endianness формата : Big
Идентификатор кодека : A_AC3
Продолжительность : 1 ч. 2 м.
Вид битрейта : Постоянный
Битрейт : 640 Кбит/сек
Каналы : 6 каналов
Расположение каналов : Front: L C R, Side: L R, LFE
Частота : 48,0 КГц
Битовая глубина : 16 бит
Метод сжатия : С потерями
Размер потока : 287 Мбайт (18%)
Default : Нет
Forced : Нет

Меню
00:00:00.000 : id:
00:03:11.274 : id:
00:12:27.413 : id:
00:16:53.804 : id:
00:22:15.042 : id:
00:26:52.527 : id:
00:34:36.157 : id:
00:45:20.968 : id:
00:49:33.053 : id:
00:53:30.373 : id:
00:58:31.216 : id:
01:01:26.683 : id:
01:02:34.750 : id:

Jam & Spoon - Best Of (Anniversary Edition) [2015, Trance, Vocal Trance, Euro House, MP3]
2015-03-27 17:33
Jam & Spoon - Best Of (Anniversary Edition)
Формат: MP3, tracks, 320kbps
Год выпуска: 2015
Страна: Germany
Жанр: Trance, Vocal Trance, Euro House
Продолжительность: 03:14:38
Описание:

Tracklist

01. Find Me 2015 (Jam El Mar Remix Radio Edit) [03:50]
02. Jam & Spoon feat. Plavka vs. David May & Amfree - Right in the Night (David May vs Amfree Radio Edit without Rap) [03:13]
03. Jam & Spoon feat. Rea - Be.Angeled (Jam & Amfree Rework Radio Edit) [03:46]
04. Stella (Original Mix) [06:20]
05. I Pull My Gun Once (Original Mix) [05:04]
06. I Pull My Gun Twice (Original Mix) [04:19]
07. Jam & Spoon feat. Plavka - Angel (Ladadi O-Heyo) (Airplay Edit II) [04:17]
08. El Baile [05:03]
09. Jam & Spoon feat. Plavka - Right in the Night (Fall in Love with Music) [06:04]
10. Odyssey to Anyoona [09:59]
11. Follow Me! (Original Mix) [12:28]
12. Jam & Spoon feat. Rea - Set Me Free (Empty Rooms) (Video Version) [03:52]
13. Jam & Spoon feat. Jim Kerr - Cynical Heart [03:44]
14. Warm Dead Dog (Kaleidoscope Mix) [05:25]
15. Jam & Spoon feat. Tricky - Bianche le mie mani [05:25]
16. Jam & Spoon feat. Xavier Naidoo - None of This [03:43]
17. Jam & Spoon feat. Plavka - Butterfly Sign [03:11]
18. World of X.T.C. [05:52]
19. Jam & Spoon feat. Plavka - Kaleidoscope Skies (Jam & Spoon Remix) [04:37]
20. Jam & Spoon feat. Plavka - Right in the Night (Fall in Love with Music) (Flamenc-O-Matic Fairytale Radio) [03:38]
21. Jam & Spoon feat. Plavka - Don't Call It Love (Radio Mix) [03:43]
22. Jam & Spoon feat. Plavka - Find Me (Odyssey To Anyoona) (Radio Mix) [04:01]
23. Jam & Spoon feat. Rea - Be.Angeled (Radio Mix) [03:36]
24. Stella (Barracuda Mix by Moby) [06:36]
25. N.A.S.A. Nocturnal Audio Sensory Awakening [12:06]
26. Jam & Spoon feat. Plavka vs. David May & Amfree - Right in the Night (David May vs Amfree Radio Edit ft Nate) [03:25]
27. Jam & Spoon feat. Plavka - Find Me (Odyssey To Anyoona) [07:24]
28. Stella (Nalin & Kane Remix) [09:50]
29. Stella (Jam & Spoon Remix) [00:59]
30. Kiss Away (Original Album Mix) [05:06]
31.Jam & Spoon feat. Plavka - Angel (La Fiesta Musical Mix) [06:19]
32. I Pull My Gun Once [02:51]
33. I Pull My Gun Twice [04:08]
34. Jam & Spoon feat. Rea - Be.Angeled (PVD Angeled Club Mix) [05:54]
35. Jam & Spoon feat. Plavka - Right in the Night (Fall in Love with Music) (Groove Coverage Mix) [04:42]
36. Follow Me! [09:46]

Нямецка-беларускі слоўнік / Немецко-белорусский словарь (Мікалай Кур’янка) [2006, Изучение иностранных языков, PDF, OCR без ошибок]
2015-03-27 17:27
Нямецка-беларускі слоўнік / Немецко-белорусский словарь
ISBN: 985-6783-25-9
Формат: PDF, OCR без ошибок
Автор: Мікалай Кур’янка
Год выпуска: 2006
Жанр: Изучение иностранных языков
Издательство: Выдавец Зміцер Колас
Язык: Белорусский
Количество страниц: 976
Описание: Гэты слоўнік — першы нямецка-беларускі слоўнік сярэдняга памеру (больш за 50 000 словаў). Універсальны характар дазваляе выкарыстоўваць яго з рознымі мэтамі як у пісьмовай, так і ў вуснай камунікацыі. Маючы выразную функцыянальную накіраванасць, слоўнік дапаможа карыстальніку перакласці нямецкія тэксты размоўнага, грамадзка-палітычнага і літаратурна-мастацкага жанраў. Прызначаецца шырокаму колу карыстальнікаў: перакладчыкам, студэнтам, навуковым даследчыкам і г. д.

Этот словарь - первый немецко-белорусский словарь среднего размера (более 50 000 слов). Универсальный характер позволяет использовать его с различными целями как в письменной, так и в устной коммуникации. Имея четкую функциональную направленность, словарь поможет пользователю перевести немецкие тексты разговорного, общественно-политического и литературно-художественного жанров. Предназначается широкому кругу пользователей: переводчиком, студентам, научным исследователям и т. д.

Бывшие / Ex / Chin do (Хэйвард Мак ) [2010, Мелодрама, романтика , BDRip 720p] VO + Sub + Original Chi
2015-03-27 17:27
Бывшие / Ex / Chin do

Перевод: Любительский (одноголосый), субтитры: есть (SRT, в составе контейнера)
Формат: BDRip, MKV, h264, AC3
Страна: Китай
Режиссер: Хэйвард Мак
Жанр: Мелодрама, романтика
Продолжительность: 01:36:19
Год выпуска: 2010

Озвучка: FassaD

В ролях: Гиллиан Чун, Уильям Чан Вэй-Тин, Мишель Вэй, Лоуренс Чоу, Джеки Хеунг, Эман Лам, Дип Нг, Чэпман То и др.

Описание: Разбитая посуда, разбитое сердце. "Давай расстанемся! И никаких "останемся друзьями!
Но что можно поделать, если встречая любимую в прошлом половинку, чувства вспыхивают вновь? Что, если воспоминания захлестывают вас, а сердце сжимается от боли?..
Чжоу И не верит в дружбу после разрыва, но оставшись одна в мегаполисе, вынуждена жить с бывшим и его девушкой...
Пин не верит в дружбу после разрыва. Но приютив Чжоу И на пару дней он чувствует, что забыть старую любовь труднее, чем он думал...
Как же повернется их история? Есть ли дружба между бывшими? Или это просто любовь, которую так сложно забыть?




Видео: h264, 1280x720 (16:9), 24 fps, ~ 5200Kbps avg
Аудио#1: Rus AC3, 48.0KHz, 6 ch, ~ 448Kbps
Аудио#2: Cha AC3, 48.0KHz, 6 ch, ~ 448Kbps

MediaInfo
Общее
Уникальный идентификатор : 252648690379956971258100208957728164607 (0xBE125E29895D09AE82CDAA17705B0AFF)
Полное имя : D:\FassaD\Ex (2010)\[FanDub]_Ex_[720p_h264]_[FassaD].mkv
Формат : Matroska
Версия формата : Version 4 / Version 2
Размер файла : 4,10 Гбайт
Продолжительность : 1 ч. 36 м.
Общий поток : 6098 Кбит/сек
Дата кодирования : UTC 2015-03-09 07:32:33
Программа кодирования : mkvmerge v6.1.0 ('Old Devil') built on Mar 4 2013 09:10:42
Библиотека кодирования : libebml v1.3.0 + libmatroska v1.4.0

Видео
Идентификатор : 1
Формат : AVC
Формат/Информация : Advanced Video Codec
Профиль формата : High@L4.1
Параметр CABAC формата : Да
Параметр ReFrames формата : 8 кадров
Идентификатор кодека : V_MPEG4/ISO/AVC
Продолжительность : 1 ч. 36 м.
Битрейт : 5200 Кбит/сек
Ширина : 1280 пикселей
Высота : 720 пикселей
Соотношение сторон : 16:9
Режим частоты кадров : Постоянный
Частота кадров : 24,000 кадра/сек
Цветовое пространство : YUV
Субдискретизация насыщенности : 4:2:0
Битовая глубина : 8 бит
Тип развёртки : Прогрессивная
Бит/(Пиксели*Кадры) : 0.235
Размер потока : 3,42 Гбайт (83%)
Библиотека кодирования : x264 core 112 r1834 a51816a
Настройки программы : cabac=1 / ref=8 / deblock=1:-3:-3 / analyse=0x3:0x113 / me=umh / subme=9 / psy=1 / psy_rd=1.00:0.10 / mixed_ref=1 / me_range=32 / chroma_me=1 / trellis=2 / 8x8dct=1 / cqm=2 / deadzone=21,11 / fast_pskip=0 / chroma_qp_offset=-2 / threads=12 / sliced_threads=0 / nr=0 / decimate=1 / interlaced=0 / constrained_intra=0 / bframes=6 / b_pyramid=2 / b_adapt=2 / b_bias=0 / direct=3 / weightb=1 / open_gop=0 / weightp=2 / keyint=250 / keyint_min=24 / scenecut=40 / intra_refresh=0 / rc_lookahead=60 / rc=2pass / mbtree=1 / bitrate=5200 / ratetol=1.0 / qcomp=0.60 / qpmin=1 / qpmax=51 / qpstep=4 / cplxblur=20.0 / qblur=0.5 / vbv_maxrate=30000 / vbv_bufsize=30000 / ip_ratio=1.40 / aq=1:0.60 / nal_hrd=none
Язык : English
Default : Да
Forced : Нет

Аудио #1
Идентификатор : 2
Формат : AC-3
Формат/Информация : Audio Coding 3
Расширение режима : CM (complete main)
Параметр Endianness формата : Big
Идентификатор кодека : A_AC3
Продолжительность : 1 ч. 36 м.
Вид битрейта : Постоянный
Битрейт : 448 Кбит/сек
Каналы : 6 каналов
Расположение каналов : Front: L C R, Side: L R, LFE
Частота : 48,0 КГц
Битовая глубина : 16 бит
Метод сжатия : С потерями
Размер потока : 309 Мбайт (7%)
Заголовок : FassaD
Default : Да
Forced : Нет

Аудио #2
Идентификатор : 3
Формат : AC-3
Формат/Информация : Audio Coding 3
Расширение режима : CM (complete main)
Параметр Endianness формата : Big
Идентификатор кодека : A_AC3
Продолжительность : 1 ч. 36 м.
Вид битрейта : Постоянный
Битрейт : 448 Кбит/сек
Каналы : 6 каналов
Расположение каналов : Front: L C R, Side: L R, LFE
Частота : 48,0 КГц
Битовая глубина : 16 бит
Метод сжатия : С потерями
Размер потока : 309 Мбайт (7%)
Default : Нет
Forced : Нет

Кибериада 1. Сказки роботов (Лем Станислав) [2015, Фантастика, аудиокнига, MP3, 192kbps, Князев Игорь]
2015-03-27 17:24
Сказки роботов
Формат: аудиокнига, MP3, 192kbps
Автор: Лем Станислав
Год выпуска: 2015
Жанр: Фантастика
Издательство: Аудиокнига своими руками / Театр Абуки
Исполнитель: Князев Игорь
Продолжительность: 05:05:20




Описание: Роботы уже давно колонизировали множество планет и обитают там самостоятельно и самодостаточно. Появились расы и нации роботов. У каждой своя культура, свои мифы, легенды и сказки.
У одних есть миф — все роботы были созданы бледнотиками. Их никто не видел, но все сходятся во мнении, что они ужасны во всем и даже дышат они (о ужас!) кислородом, который разъедает железо.
Другие же наслышаны о сокровищах ледяного царства и самые смелые электрыцари отправляются за ними.
А есть и те, кто не могут победить дракона собственного производства...


Цикл «Кибериада»

1. Сказки роботов http://tfile.me/forum/viewtopic.php?t=709265
2. Кибериада



От исполнителя


А вот эту книгу я прочел в первый раз лет сорок назад . Конечно, подборка была неполной. В крошечный «мировский» томик «Зарубежной фантастики» поместилась примерно половина. Остальное занимала еще более усеченная «Кибериада». Впрочем, на момент издания, скорее всего, примерно столько же и было написано,минус эротические эскапады.

Лем писал свою киберэпопею долго. Начиналось все с веселых сказочек или, скорее, баек (по-польски так и звучит: bajki robotow) про доблестных электрыцарей и киберкоролей. Но чем дальше углублялся Лем в тему, тем сильнее становилась философская составляющая. Последние повести ой как непросты. Но не будем забегать вперед, сказанное относится ко второй части цикла. А здесь все еще просто и весело. Это, конечно, винтажные сказки для взрослых, но с одной оговоркой. Все упоминаемые термины употреблены абсолютно по назначению и со знанием дела (до такой степени, что можно даже употребить термин «НФ»). Кроме придуманных, несуществующих слов, особенно нравившихся мне в детстве, которые вы, конечно, легко опознаете. О последних стоит сказать особо. Я просто в восторге от качества старинных переводов. Умели же! Кое-что я помню до сих пор наизусть.

Вспомним, друзья, о временах, когда ЭВМ занимали целые залы с редкими тогда кондиционерами, информацию набивали дырочками на бумагу, а про дисковые накопители страшно и вспоминать, до того они были огромные. Я, кстати, застал даже АВМ (аналоговые вычислительные машины), собиравшиеся по принципу телефонной станции с коммутацией шнурами в гнезда под каждую конкретную задачу. Это была реальная жесть!

Спасибо нашей постоянной команде: Свете за корректуру, Алексею за чистку мусора, Дмитрию за адаптацию картинки к нашим суровым условиям. Ну и до встречи в «Кибериаде»!

Игорь Князев


Корректор: Бондаренко Светлана
Постер: Дмитрий В.

Comedy Баттл. Последний сезон, Выпуск № 01 [эфир 27.03.2015] (ТК "ТНТ") [2015, ТВ-шоу, юмор, импровизация, SATRip]
2015-03-27 17:23
Comedy Баттл. Последний сезон, Выпуск № 01 [эфир 27.03.2015]
Перевод: Не требуется, cубтитры: отсутствуют
Формат: SATRip, AVI, XviD, MP3
Страна: Россия
Режиссер: ТК "ТНТ"
Жанр: ТВ-шоу, юмор, импровизация
Продолжительность: 00:48:44
Год выпуска: 2015

Описание: Стартует заключительный сезон проекта, который уже давно стал кузницей кадров для многих других шоу. Причем не только канала ТНТ. Засветившись в эфире «Баттла», юмористы начинают активно стендапить, писать сценарии для крупных (и не обязательно юмористических) сериалов, выходят на сцену Comedy Club, в конце концов.

Видео: 720x400 (1.80:1), 25 fps, XviD build 50 ~1798 kbps avg, 0.25 bit/pixel
Аудио: 48 kHz, MPEG Layer 3, 2 ch, ~128.00 kbps avg


Бывшие / Ex / Chin do (Хэйвард Мак ) [2010, Мелодрама, романтика , DVDRip] VO + Sub + Original Chi
2015-03-27 17:21
Бывшие / Ex / Chin do

Перевод: Любительский (одноголосый), субтитры: есть (SRT, в составе контейнера)
Формат: DVDRip, AVI, XviD, AC3
Страна: Китай
Режиссер: Хэйвард Мак
Жанр: Мелодрама, романтика
Продолжительность: 01:36:19
Год выпуска: 2010

Озвучка: FassaD

В ролях: Гиллиан Чун, Уильям Чан Вэй-Тин, Мишель Вэй, Лоуренс Чоу, Джеки Хеунг, Эман Лам, Дип Нг, Чэпман То и др.

Описание: Разбитая посуда, разбитое сердце. "Давай расстанемся! И никаких "останемся друзьями!
Но что можно поделать, если встречая любимую в прошлом половинку, чувства вспыхивают вновь? Что, если воспоминания захлестывают вас, а сердце сжимается от боли?..
Чжоу И не верит в дружбу после разрыва, но оставшись одна в мегаполисе, вынуждена жить с бывшим и его девушкой...
Пин не верит в дружбу после разрыва. Но приютив Чжоу И на пару дней он чувствует, что забыть старую любовь труднее, чем он думал...
Как же повернется их история? Есть ли дружба между бывшими? Или это просто любовь, которую так сложно забыть?




Видео: XviD, 720x400 (16:9), 23.976 fps, ~ 1644Kbps avg
Аудио#1: Rus AC3, 48.0KHz, 2 ch, ~ 192Kbps
Аудио#2: Cha AC3, 48.0KHz, 2 ch, ~ 192Kbps

MediaInfo
General
Complete name : F:\Ex DVDRip (2010)\[FanDub]_Ex_[480p_h264]_[FassaD]222.avi
Format : AVI
Format/Info : Audio Video Interleave
File size : 1.37 GiB
Duration : 1h 36mn
Overall bit rate : 2 040 Kbps

Video
ID : 0
Format : MPEG-4 Visual
Format profile : Advanced Simple@L5
Format settings, BVOP : 2
Format settings, QPel : No
Format settings, GMC : No warppoints
Format settings, Matrix : Default (H.263)
Codec ID : XVID
Codec ID/Hint : XviD
Duration : 1h 36mn
Bit rate : 1 641 Kbps
Width : 720 pixels
Height : 400 pixels
Display aspect ratio : 16:9
Frame rate : 23.976 fps
Color space : YUV
Chroma subsampling : 4:2:0
Bit depth : 8 bits
Scan type : Progressive
Compression mode : Lossy
Bits/(Pixel*Frame) : 0.238
Stream size : 1.10 GiB (80%)
Writing library : XviD 73

Audio #1
ID : 1
Format : AC-3
Format/Info : Audio Coding 3
Mode extension : CM (complete main)
Format settings, Endianness : Big
Codec ID : 2000
Duration : 1h 36mn
Bit rate mode : Constant
Bit rate : 192 Kbps
Channel(s) : 2 channels
Channel positions : Front: L R
Sampling rate : 48.0 KHz
Bit depth : 16 bits
Compression mode : Lossy
Stream size : 132 MiB (9%)
Alignment : Split accross interleaves
Interleave, duration : 42 ms (1.00 video frame)
Interleave, preload duration : 500 ms

Audio #2
ID : 2
Format : AC-3
Format/Info : Audio Coding 3
Mode extension : CM (complete main)
Format settings, Endianness : Big
Codec ID : 2000
Duration : 1h 36mn
Bit rate mode : Constant
Bit rate : 192 Kbps
Channel(s) : 2 channels
Channel positions : Front: L R
Sampling rate : 48.0 KHz
Bit depth : 16 bits
Compression mode : Lossy
Stream size : 132 MiB (9%)
Alignment : Split accross interleaves
Interleave, duration : 42 ms (1.00 video frame)
Interleave, preload duration : 500 ms

В погоне за Эми / Chasing Amy (Кевин Смит) [1996, драма, мелодрама, комедия, LowHDRip] MVO
2015-03-27 17:19
В погоне за Эми / Chasing Amy

Перевод: Профессиональный (многоголосый закадровый), субтитры: отсутствуют
Формат: LowHDRip, AVI, XviD, MP3
Страна: США
Режиссер: Кевин Смит
Жанр: драма, мелодрама, комедия
Продолжительность: 01:53:19
Год выпуска: 1996
В ролях: Этан Сапли, Бен Аффлек, Скотт Мосье, Джейсон Ли, Кейси Аффлек, Дуайт Юэлл, Джои Лорен Эдамс, Жиневьева Тернер, Кармен Ли, Брайан О'Хэллоран
Описание: Молодой художник теряет голову и ощущение реальности, когда безумно влюбляется в восхитительную красотку, чьи любовные похождения, в том числе и лесбийские, трудно сосчитать. Его лучший друг, он же партнер, очень завистлив и подбрасывает ему всякие доказательства темного прошлого этой легкомысленной особы. Однако влюбленный художник ничего не желает слушать и не перестает думать и мечтать о неугомонной Алисе Джонс…



Видео: 624x352 (1.77:1), 23.976 fps, XviD build 73 ~783 kbps avg, 0.15 bit/pixel
Аудио: 48 kHz, MPEG Layer 3, 2 ch, ~128.00 kbps avg

Осада Углича (Масальский Константин) [2015, Историческая проза, аудиокнига, MP3, 96kbps, Заборовский Юрий]
2015-03-27 17:15
Осада Углича
Формат: аудиокнига, MP3, 96kbps
Автор: Масальский Константин
Год выпуска: 2015
Жанр: Историческая проза
Издательство: Нигде не купишь
Исполнитель: Заборовский Юрий
Продолжительность: 02:44:43




Описание: В повести "Осада Углича" рассказывается о неудачной попытке поляков захватить русский город Углич в период Смутного времени.

Константин Масальский — популярный русский писатель середины XIX века — был широко известен как автор многочисленных исторических романов. Его роман «Стрельцы» воссоздает перед нами события конца XVII и начала XVIII веков, времена Хованщины и стрелецких бунтов, время, когда России предстояло сделать выбор между патриархальной стариной и крутым взлетом петровских реформ. Сочетая увлекательную интригу с достоверностью изображения исторических лет и событий, писатель рисует широкую многофигурную панораму эпохи Петра I. Произведения Масальского написаны живо и увлекательно, в них присутствует почти детективная интрига.






Доп. информация:
Прочитано по изданию: Смоленск: Русич, 1994
Очищено: sky4all
Обработано: knigofil
Обложка: Вася с Марса

Скорпион, 1 сезон 1-19 серия из 22 / Scorpion [BaibaKo] (Гэри Фледер, Дуайт Х. Литтл, Бобби Рот) [2014, боевик, драма, WEB-DLRip-AVC, P]
2015-03-27 17:14
Скорпион, 1 сезон 1-19 серия из 22 / Scorpion
«Эта команда - чистый гений...»

Перевод: Профессиональный (многоголосый закадровый) [BaibaKo]
Cубтитры: отсутствуют
Формат: WEB-DLRip (AVC), MKV, H.264, AC3
Страна: США
Режиссер: Гэри Фледер, Дуайт Х. Литтл, Бобби Рот
Жанр: боевик, драма
Всего серий: 22
Продолжительность: ~ 00:42:00 серия
Год выпуска: 2014

В ролях: Элиес Габел, Кэтрин МакФи, Роберт Патрик, Эри Стидэм, Эдди Кэй Томас, Джейдин Вонг, Эмили Робинсон, Даниэль Цолгхадри, Майкл Дж. Сильвер, Эрик Авари

Описание:
Сюжет основан на реальных событиях.
Это история об эксцентричном гении и его группе вундеркиндов, которые являются аналитическим центром, работающим на службу национальной безопасности. Их задача - разбираться со сложными угрозами современности...


Рейтинг на:


Видео: 1024х576 (1.77:1), 23,976 fps, AVC (х264), Main@L3.1, ~2000 Kbps avg, 0.131 bit/pixel
Аудио: 48.0 kHz, AC3 Dolby Digital, 6 channels (Front: L C R, Side: L R, LFE), ~384 kbps avg

Доп. информация: звук перевода и оригинальная дорожка Dolby Digital 5.1
Полноэкранное изображение (16:9)

MediaInfo
Общее
Уникальный идентификатор : 138613589431310273639775115397696691821 (0x6848019A27CD1D7C6FFA4D9CFCE19E6D)
Полное имя : D:\Video\...\scorpion_s01e01_[tfile.me].mkv
Формат : Matroska
Версия формата : Version 2
Размер файла : 706 Мбайт
Продолжительность : 43 м.
Общий поток : 2288 Кбит/сек
Дата кодирования : UTC 2014-09-26 19:04:09
Программа кодирования : Lavf54.63.104
Библиотека кодирования : Lavf54.63.104

Видео
Идентификатор : 1
Формат : AVC
Формат/Информация : Advanced Video Codec
Профиль формата : Main@L3.1
Параметр CABAC формата : Да
Параметр ReFrames формата : 1 кадр
Идентификатор кодека : V_MPEG4/ISO/AVC
Продолжительность : 43 м.
Битрейт : 2000 Кбит/сек
Ширина : 1024 пикселя
Высота : 576 пикселей
Соотношение сторон : 16:9
Режим частоты кадров : Постоянный
Частота кадров : 23,976 кадра/сек
Цветовое пространство : YUV
Субдискретизация насыщенности : 4:2:0
Битовая глубина : 8 бит
Тип развёртки : Прогрессивная
Бит/(Пиксели*Кадры) : 0.131
Размер потока : 573 Мбайт (81%)
Библиотека кодирования : x264 core 129
Настройки программы : cabac=1 / ref=1 / deblock=1:0:0 / analyse=0x1:0x131 / me=dia / subme=2 / psy=1 / psy_rd=1.00:0.00 / mixed_ref=0 /

me_range=16 / chroma_me=1 / trellis=0 / 8x8dct=0 / cqm=0 / deadzone=21,11 / fast_pskip=1 / chroma_qp_offset=0 / threads=4 / lookahead_threads=1 / sliced_threads=0 /

nr=0 / decimate=1 / interlaced=0 / bluray_compat=0 / constrained_intra=0 / bframes=0 / weightp=2 / keyint=250 / keyint_min=25 / scenecut=40 / intra_refresh=0 /

rc_lookahead=40 / rc=abr / mbtree=1 / bitrate=2000 / ratetol=1.0 / qcomp=0.60 / qpmin=10 / qpmax=51 / qpstep=4 / ip_ratio=1.41 / aq=1:1.00
Default : Да
Forced : Нет

Аудио
Идентификатор : 2
Формат : AC-3
Формат/Информация : Audio Coding 3
Расширение режима : CM (complete main)
Параметр Endianness формата : Big
Идентификатор кодека : A_AC3
Продолжительность : 43 м.
Вид битрейта : Постоянный
Битрейт : 384 Кбит/сек
Каналы : 6 каналов
Расположение каналов : Front: L C R, Side: L R, LFE
Частота : 48,0 КГц
Битовая глубина : 16 бит
Метод сжатия : С потерями
Размер потока : 118 Мбайт (17%)
Default : Да
Forced : Нет
Внимание! Раздача ведётся путём добавления новых серий. Добавлена 19-я серия

При каждом добавлении новой серии создается новый торрент-файл. Чтобы начать докачку новой серии, пользователям необходимо сделать следующее:
(1) остановить скачивание
(2) удалить старый торрент у себя из клиента (старые серии удалять не надо)
(3) скачать новый торрент и запустить его у себя в клиенте вместо старого, при этом указать клиенту путь в старую папку куда и должно происходить скачивание новых серий.

Ваша программа (например UTorrent) при этом должена произвести хеширование (проверку) старой папки (если не производит сама - помогите ему сделать это), и будет докачивать только те серии которых у вас ещё нет. Старые серии при этом не удаляются, а продолжают раздаваться (Важно!)

Eсли вы уже удалили старые серии, то предотвратить повторную закачку старых серий можно, отжав галочку в соответствующих местах при запуске нового торрента. По возможности, желательно не удалять старые серии как можно дольше, чтобы релизёр не столько продолжал раздавать старые серии, а смог сконцентрироваться на новых

Аўтарскі грэцка-беларускі слоўнік / Греческо-белорусский словарь (Мікола Бусел) [2013, Изучение иностранных языков, PDF, OCR без ошибок]
2015-03-27 17:13
Аўтарскі грэцка-беларускі слоўнік (3-е выданне, дапоўненае) / Греческо-белорусский словарь
Формат: PDF, OCR без ошибок
Автор: Мікола Бусел
Год выпуска: 2013
Жанр: Изучение иностранных языков
Издательство: Таварыства беларускай мовы імя Францішка Скарыны
Язык: Белорусский
Количество страниц: 135
Описание: Гэты невялікі слоўнік, які мае ўжо трэцяе выданне, дае добрыя ўводзіны ў сучасную грэцкую мову, дазваляе беларусу з дастатковай ступенню разумення без пасярэднікаў прачытаць тэкст падручнікаў і чытанак, газетных і часопісных артыкулаў ды энцыклапедычных звестак, а таксама тэкстаў з гісторыі як Грэцыі, так і Еўропы.
Слоўнік мае 12.000 рэестравых слоў і неабходны мінімальны граматычны даведнік па мове ды іншыя карысныя звесткі.

Это уже третье издание этого небольшого словаря, который является хорошим введением в современный греческий язык, позволяет белорусу с достаточной степенью понимания без посредников прочитать текст учебников и букварей, газетных и журнальных статей и энциклопедических сведений, а также текстов из истории как Греции, так и Европы.
В словаре 12.000 реестровых слов и необходимый минимальный грамматический справочник по языку и другие полезные сведения.

Аки и Сора: Под покровом сна / Aki Sora: Yume no Naka (Такахаси Такэо) [OVA-2] [2 из 2] [RAW][RUS(int)+JAP][2010, комедия, романтика, этти, BDRip] [720p]
2015-03-27 17:12
Аки и Сора: Под покровом сна / Aki Sora: Yume no Naka


Перевод: Любительский (одноголосый)
Хардсаб: отсутствует
Формат: BDRip, MKV, H.264, AAC
Страна: Япония
Режиссер: Такахаси Такэо
Жанр: комедия, романтика, этти
Продолжительность: OVA (1 эп.), 22 мин.
Год выпуска: 2010

Озвучка: FassaD

Описание: Данный сериал покажет нам трогательную историю запретной любви брата и сестры. Что же ждёт наших героев, чем всё закончится? Смотрите и узнаете сами. С самого детства Аки, чьё имя можно перевести как «осень», и Сора — «небо» — были весьма близки. Но с возрастом их отношения приобрели более спокойных характер, подобающий родственникам. Но чувства есть чувства, их не скроешь, даже когда любишь родного человека.



Видео: 1280x720, 23.976fps, AVC MPEG4 (H.264), High 10@L4.1 , ~ 2200Kbps avg
Аудио#1: Rus AAC, 48.0KHz, 2ch, ~ 192Kbps avg
Аудио#2: Jap AAC, 48.0KHz, 2ch, ~ 192Kbps avg

MediaInfo
Общее
Уникальный идентификатор : 229929341595404756814478484966672859901 (0xACFAC7C8C3E1409684C50D51015E82FD)
Полное имя : F:\FIFA 08\02 - OVA\2012\04 - Аки Сора - Под покровом сна (2010)\Озвученно\[FanDub]_Aki_Sora_Yume_no_Naka_OVA_1_[720p_h264]_[FassaD].mkv
Формат : Matroska
Версия формата : Version 4 / Version 2
Размер файла : 438 Мбайт
Продолжительность : 24 м.
Режим общего битрейта : Переменный
Общий поток : 2520 Кбит/сек
Дата кодирования : UTC 2015-02-18 14:15:34
Программа кодирования : mkvmerge v6.1.0 ('Old Devil') built on Mar 4 2013 09:10:42
Библиотека кодирования : libebml v1.3.0 + libmatroska v1.4.0

Видео
Идентификатор : 1
Формат : AVC
Формат/Информация : Advanced Video Codec
Профиль формата : High 10@L4.1
Параметр CABAC формата : Да
Параметр ReFrames формата : 9 кадров
Идентификатор кодека : V_MPEG4/ISO/AVC
Продолжительность : 24 м.
Ширина : 1280 пикселей
Высота : 720 пикселей
Соотношение сторон : 16:9
Режим частоты кадров : Постоянный
Частота кадров : 23,976 кадра/сек
Цветовое пространство : YUV
Субдискретизация насыщенности : 4:2:0
Битовая глубина : 10 бит
Тип развёртки : Прогрессивная
Библиотека кодирования : x264 core 132 r2309 3b1f1f7
Настройки программы : cabac=1 / ref=9 / deblock=1:-2:-2 / analyse=0x3:0x133 / me=umh / subme=9 / psy=1 / psy_rd=0.90:0.00 / mixed_ref=1 / me_range=24 / chroma_me=1 / trellis=2 / 8x8dct=1 / cqm=0 / deadzone=21,11 / fast_pskip=1 / chroma_qp_offset=-2 / threads=6 / lookahead_threads=1 / sliced_threads=0 / nr=0 / decimate=0 / interlaced=0 / bluray_compat=0 / constrained_intra=0 / bframes=8 / b_pyramid=2 / b_adapt=2 / b_bias=0 / direct=1 / weightb=1 / open_gop=0 / weightp=2 / keyint=250 / keyint_min=23 / scenecut=40 / intra_refresh=0 / rc=crf / mbtree=0 / crf=15.5 / qcomp=0.70 / qpmin=9 / qpmax=40 / qpstep=4 / ip_ratio=1.40 / pb_ratio=1.30 / aq=1:0.90
Default : Нет
Forced : Нет

Аудио #1
Идентификатор : 2
Формат : AAC
Формат/Информация : Advanced Audio Codec
Профиль формата : LC
Идентификатор кодека : A_AAC
Продолжительность : 24 м.
Каналы : 2 канала
Расположение каналов : Front: L R
Частота : 48,0 КГц
Метод сжатия : С потерями
Default : Да
Forced : Нет

Аудио #2
Идентификатор : 3
Формат : Vorbis
Параметр Floor формата : 1
Идентификатор кодека : A_VORBIS
Продолжительность : 24 м.
Вид битрейта : Переменный
Битрейт : 256 Кбит/сек
Каналы : 2 канала
Частота : 48,0 КГц
Метод сжатия : С потерями
Размер потока : 44,5 Мбайт (10%)
Библиотека кодирования : libVorbis (Schaufenugget) (20101101 (Schaufenugget))
Язык : Japanese
Default : Нет
Forced : Нет

Аки Сора / Aki Sora (Такахаси Такэо) [OVA] [1 из 1] [RAW][RUS(int)+JAP][2009, комедия, романтика, этти, BDRip] [720p]
2015-03-27 17:09
Аки Сора / Aki Sora


Перевод: Любительский (одноголосый)
Хардсаб: отсутствует
Формат: BDRip, MKV, H.264, AAC
Страна: Япония
Режиссер: Такахаси Такэо
Жанр: комедия, романтика, этти
Продолжительность: OVA (1 эп.), 21 мин.
Год выпуска: 2009

Озвучка: FassaD

Описание: Данный сериал покажет нам трогательную историю запретной любви брата и сестры. Что же ждёт наших героев, чем всё закончится? Смотрите и узнаете сами. С самого детства Аки, чьё имя можно перевести как «осень», и Сора — «небо» — были весьма близки. Но с возрастом их отношения приобрели более спокойных характер, подобающий родственникам. Но чувства есть чувства, их не скроешь, даже когда любишь родного человека.



Видео: 1280x720, 23.976fps, AVC MPEG4 (H.264), High 10@L5.1 , ~ 1409Kbps avg
Аудио#1: Rus AAC, 48.0KHz, 2ch, ~ 192Kbps avg
Аудио#2: Jap AAC, 48.0KHz, 2ch, ~ 192Kbps avg

MediaInfo
Общее
Уникальный идентификатор : 186949354453783233493847492683454703174 (0x8CA522CFC22181F2AAF2A9606D436646)
Полное имя : F:\FIFA 08\02 - OVA\2012\03 - Аки Сора - Вместе навечно (2009)\Озвученно\[FanDub]_Aki_Sora_OVA_1_[720p_h264]_[FassaD].mkv
Формат : Matroska
Версия формата : Version 4 / Version 2
Размер файла : 298 Мбайт
Продолжительность : 22 м.
Общий поток : 1889 Кбит/сек
Название фильма : Aki Sora / ????
Дата кодирования : UTC 2015-02-26 09:36:30
Программа кодирования : mkvmerge v6.1.0 ('Old Devil') built on Mar 4 2013 09:10:42
Библиотека кодирования : libebml v1.3.0 + libmatroska v1.4.0
Attachment : Yes / Yes

Видео
Идентификатор : 1
Формат : AVC
Формат/Информация : Advanced Video Codec
Профиль формата : High 10@L5.1
Параметр CABAC формата : Да
Параметр ReFrames формата : 16 кадров
Идентификатор кодека : V_MPEG4/ISO/AVC
Продолжительность : 22 м.
Ширина : 1280 пикселей
Высота : 720 пикселей
Соотношение сторон : 16:9
Режим частоты кадров : Постоянный
Частота кадров : 23,976 кадра/сек
Цветовое пространство : YUV
Субдискретизация насыщенности : 4:2:0
Битовая глубина : 10 бит
Тип развёртки : Прогрессивная
Библиотека кодирования : x264 core 140 r2377+40 929f149 tMod [10-bit@all X86]
Настройки программы : cabac=1 / ref=16 / deblock=1:0:0 / analyse=0x3:0x133 / me=umh / subme=10 / psy=1 / fade_compensate=0.00 / psy_rd=1.00:0.00 / mixed_ref=1 / me_range=24 / chroma_me=1 / trellis=2 / 8x8dct=1 / cqm=0 / deadzone=21,11 / fast_pskip=1 / chroma_qp_offset=-2 / threads=12 / lookahead_threads=2 / sliced_threads=0 / nr=0 / decimate=1 / interlaced=0 / bluray_compat=0 / constrained_intra=0 / fgo=0 / bframes=8 / b_pyramid=2 / b_adapt=2 / b_bias=0 / direct=3 / weightb=1 / open_gop=0 / weightp=2 / keyint=250 / keyint_min=23 / scenecut=40 / intra_refresh=0 / rc_lookahead=60 / rc=crf / mbtree=1 / crf=16.0000 / qcomp=0.60 / qpmin=0:0:0 / qpmax=81:81:81 / qpstep=4 / ip_ratio=1.40 / aq=1:1.00 / aq-sensitivity=10.00 / aq-factor=1.00:1.00:1.00 / aq2=0 / aq3=0
Язык : English
Default : Да
Forced : Нет

Аудио #1
Идентификатор : 2
Формат : AAC
Формат/Информация : Advanced Audio Codec
Профиль формата : LC
Идентификатор кодека : A_AAC
Продолжительность : 22 м.
Каналы : 2 канала
Расположение каналов : Front: L R
Частота : 48,0 КГц
Метод сжатия : С потерями
Default : Да
Forced : Нет

Аудио #2
Идентификатор : 3
Формат : AAC
Формат/Информация : Advanced Audio Codec
Профиль формата : LC
Идентификатор кодека : A_AAC
Продолжительность : 22 м.
Каналы : 2 канала
Расположение каналов : Front: L R
Частота : 48,0 КГц
Метод сжатия : С потерями
Задержка видео : 9 мс.
Default : Нет
Forced : Нет

Меню
00:00:00.000 : en:Part A
00:10:25.291 : en:Part B
00:20:40.239 : en:Credits

Дополнительные занятия до утра! / Asa made Jugyou Chu! (Канэко Хираку) [OVA] [1 из 1] [RAW][RUS(int)+JAP][2012, комедия, романтика, этти, BDRip] [720p]
2015-03-27 17:05
Дополнительные занятия до утра! / Asa made Jugyou Chu!


Перевод: Любительский (одноголосый)
Хардсаб: отсутствует
Формат: BDRip, MKV, H.264, AAC
Страна: Япония
Режиссер: Канэко Хираку
Жанр: комедия, романтика, этти
Продолжительность: OVA (1 эп.), 30 мин.
Год выпуска: 2012

Озвучка: FassaD

Описание: Сюжет закручивается вокруг молодого безобидного парнишки по имени Юки Кагами, который переводится в академию своей мечты, где его тот час по ошибке заселяют в женское общежитие. Встречая риск быть отчисленным, Юки ничего не остается, кроме как переодеваться в девочку, пока он на территории общежития. В довершении ко всему в его комнату заселяют Аяну Какинозаки (Молодую симпатичную учительницу без комплексов, которая по какой-то причине считает, что наш тихоня не совладает с собой, если его периодически не поощрять). Чуть позже о парне узнают еще несколько девчонок из общежития и становится еще веселее.



Видео: 1280x720, 23.976fps, AVC MPEG4 (H.264), High 10@L4.1 , ~ 1593Kbps avg
Аудио#1: Rus AAC, 48.0KHz, 2ch, ~ 192Kbps avg
Аудио#2: Jap Vorbis, 48000Hz, 2ch, 256Kbps avg

MediaInfo
Общее
Уникальный идентификатор : 226456135313191586255737847530437429917 (0xAA5DDD7E56152351AAC8DC894BFB4A9D)
Полное имя : F:\FIFA 08\02 - OVA\2012\05 - Учительница научит тебя всему всему (2012)\Озвученно\OVA_Asa_Made_Jugyou_Chu_[h264_1280x720р]_[FassaD].mkv
Формат : Matroska
Версия формата : Version 4 / Version 2
Размер файла : 647 Мбайт
Продолжительность : 29 м.
Режим общего битрейта : Переменный
Общий поток : 3036 Кбит/сек
Дата кодирования : UTC 2015-02-12 14:47:29
Программа кодирования : mkvmerge v6.1.0 ('Old Devil') built on Mar 4 2013 09:10:42
Библиотека кодирования : libebml v1.3.0 + libmatroska v1.4.0
Attachment : Yes / Yes / Yes / Yes / Yes / Yes / Yes / Yes / Yes / Yes

Видео
Идентификатор : 1
Формат : AVC
Формат/Информация : Advanced Video Codec
Профиль формата : High 10@L4.1
Параметр CABAC формата : Да
Параметр ReFrames формата : 9 кадров
Идентификатор кодека : V_MPEG4/ISO/AVC
Продолжительность : 29 м.
Ширина : 1280 пикселей
Высота : 720 пикселей
Соотношение сторон : 16:9
Режим частоты кадров : Постоянный
Частота кадров : 23,976 кадра/сек
Цветовое пространство : YUV
Субдискретизация насыщенности : 4:2:0
Битовая глубина : 10 бит
Тип развёртки : Прогрессивная
Заголовок : Winter
Библиотека кодирования : x264 core 125 r2200 999b753
Настройки программы : cabac=1 / ref=9 / deblock=1:-2:-2 / analyse=0x3:0x133 / me=umh / subme=9 / psy=1 / psy_rd=0.90:0.00 / mixed_ref=1 / me_range=24 / chroma_me=1 / trellis=2 / 8x8dct=1 / cqm=0 / deadzone=21,11 / fast_pskip=1 / chroma_qp_offset=-2 / threads=6 / lookahead_threads=1 / sliced_threads=0 / nr=0 / decimate=0 / interlaced=0 / bluray_compat=0 / constrained_intra=0 / bframes=8 / b_pyramid=2 / b_adapt=2 / b_bias=0 / direct=1 / weightb=1 / open_gop=0 / weightp=2 / keyint=250 / keyint_min=23 / scenecut=40 / intra_refresh=0 / rc=crf / mbtree=0 / crf=15.8 / qcomp=0.70 / qpmin=9 / qpmax=42 / qpstep=4 / ip_ratio=1.40 / pb_ratio=1.30 / aq=1:0.90
Язык : Japanese
Default : Да
Forced : Нет

Аудио #1
Идентификатор : 2
Формат : AAC
Формат/Информация : Advanced Audio Codec
Профиль формата : LC
Идентификатор кодека : A_AAC
Продолжительность : 29 м.
Каналы : 2 канала
Расположение каналов : Front: L R
Частота : 48,0 КГц
Метод сжатия : С потерями
Default : Да
Forced : Нет

Аудио #2
Идентификатор : 3
Формат : Vorbis
Параметр Floor формата : 1
Идентификатор кодека : A_VORBIS
Продолжительность : 29 м.
Вид битрейта : Переменный
Битрейт : 256 Кбит/сек
Каналы : 2 канала
Частота : 48,0 КГц
Метод сжатия : С потерями
Размер потока : 54,5 Мбайт (8%)
Заголовок : 2.0 (Original)
Библиотека кодирования : libVorbis (Schaufenugget) (20101101 (Schaufenugget))
Язык : Japanese
Default : Нет
Forced : Нет

Волшебная страна / Magic Wonderland (Цзяньрон Ву, Леон Динг) [2014, мультфильм, фэнтези, приключения, WEBDLRip] DUB
2015-03-27 17:04
Волшебная страна / Magic Wonderland

Перевод: Профессиональный (полное дублирование), субтитры: отсутствуют
Формат: WEBDLRip, AVI, XviD, MP3
Страна: Китай
Режиссер: Цзяньрон Ву, Леон Динг
Жанр: мультфильм, фэнтези, приключения
Продолжительность: 01:30:18
Год выпуска: 2014
Описание: В небольшой рыбацкой деревушке живет девочка по имени Океана. Она умеет разговаривать с морскими обитателями. Девочка не знает, откуда у нее этот дар и ничего не помнит о своем прошлом. Но однажды к ней является фея волны, которая открывает ей тайну. На самом деле Океана — дочь морской волшебницы, на которую злой дух наложил свои чары. Чтобы спасти маму, юная волшебница должна отправиться в непростое путешествие в далекую Страну Чудес. В пути ее ждет встреча с пиратами, злым колдуном и даже могущественным духом огня, но когда рядом с тобой верные друзья, ничего не страшно.



Видео: 720x320 (2.25:1), 25 fps, XviD build 73 ~1032 kbps avg, 0.18 bit/pixel
Аудио: 48 kHz, MPEG Layer 3, 2 ch, ~128.00 kbps avg

Все ради науки / Kagaku na Yatsura (Канэко Хираку) [OVA] [1 из 1] [RAW][RUS(int)+JAP][2013, комедия,романтика,этти, BDRip] [720p]
2015-03-27 17:02
Все ради науки / Kagaku na Yatsura


Перевод: Любительский (одноголосый)
Хардсаб: отсутствует
Формат: BDRip, MKV, H.264, AAC
Страна: Япония
Режиссер: Канэко Хираку
Жанр: комедия, романтика, этти
Продолжительность: OVA (1 эп.), 25 мин.
Год выпуска: 2013

Озвучка: FassaD

Описание: "Веселая" история о веселой "повседневности" трех девушек и одного парня - Хизуки Аяны, гениального изобретателя "Доктора Фанкенштейна", Хизуки Токо учёной изобретательныцы "забавных" "Колёс", Кузе Айри юной докторше "Гордоне Фримене" любительнице научных и технических прибамбасов и их подопытной кр...... друге детства Комабе Харуки - парне который вечно выручает и помогает этим трем горе учёным.



Видео: 1280x720, 23.976fps, AVC MPEG4 (H.264), High@L4.0 , ~ 1514Kbps avg
Аудио#1: Rus AAC, 48.0KHz, 2ch, ~ 192Kbps avg
Аудио#2: Jap AAC, 48.0KHz, 2ch, ~ 192Kbps avg

MediaInfo
Общее
Уникальный идентификатор : 186195566403188983641389799038214848464 (0x8C13F630F9AFCDAB9654DF53E459BFD0)
Полное имя : F:\FIFA 08\02 - OVA\2013\06 - Все ради науки (2013)\Озвученно\Kagaku_na_Yatsura_[h264_1280x720р]_[FassaD].mkv
Формат : Matroska
Версия формата : Version 4 / Version 2
Размер файла : 353 Мбайт
Продолжительность : 25 м.
Общий поток : 1959 Кбит/сек
Дата кодирования : UTC 2015-02-15 14:24:49
Программа кодирования : mkvmerge v6.1.0 ('Old Devil') built on Mar 4 2013 09:10:42
Библиотека кодирования : libebml v1.3.0 + libmatroska v1.4.0

Видео
Идентификатор : 1
Формат : AVC
Формат/Информация : Advanced Video Codec
Профиль формата : High@L4.0
Параметр CABAC формата : Да
Параметр ReFrames формата : 6 кадров
Идентификатор кодека : V_MPEG4/ISO/AVC
Продолжительность : 25 м.
Ширина : 1280 пикселей
Высота : 720 пикселей
Соотношение сторон : 16:9
Режим частоты кадров : Постоянный
Частота кадров : 23,976 кадра/сек
Цветовое пространство : YUV
Субдискретизация насыщенности : 4:2:0
Битовая глубина : 8 бит
Тип развёртки : Прогрессивная
Default : Да
Forced : Нет

Аудио #1
Идентификатор : 2
Формат : AAC
Формат/Информация : Advanced Audio Codec
Профиль формата : LC
Идентификатор кодека : A_AAC
Продолжительность : 25 м.
Каналы : 2 канала
Расположение каналов : Front: L R
Частота : 48,0 КГц
Метод сжатия : С потерями
Default : Да
Forced : Нет

Аудио #2
Идентификатор : 3
Формат : AAC
Формат/Информация : Advanced Audio Codec
Профиль формата : LC
Идентификатор кодека : A_AAC
Продолжительность : 25 м.
Каналы : 2 канала
Расположение каналов : Front: L R
Частота : 48,0 КГц
Метод сжатия : С потерями
Default : Нет
Forced : Нет

Щель / Дыра / Nozoki Ana / A Peep Hole Sexy Extended Edition (Нисидзима Кацухико) [OVA] [1 из 1] [RAW][RUS(int)+JAP][2013, комедия, романтика, этти, эротика, BDRip] [720p]
2015-03-27 16:58
Щель / Дыра / Nozoki Ana / A Peep Hole
Sexy Extended Edition



Перевод: Любительский (одноголосый)
Хардсаб: отсутствует
Формат: BDRip, MKV, H.264, AAC
Страна: Япония
Режиссер: Нисидзима Кацухико
Жанр: комедия, романтика, этти, эротика
Продолжительность: OVA (1 эп.), 56 мин.
Год выпуска: 2013

Озвучка: FassaD

Описание: Кидо Тацухико переехал в Токио, дабы начать новую, самостоятельную жизнь студента Технической Школы. У Кидо есть талант к рисованию, но он не стремится стать великим художником. Он просто жаждет вкусить взрослой жизни в максимальной удаленности от родительского очага. В своей небольшой, съемной квартирке Кидо находит загадочное отверстие в стене, в котором можно было видеть комнату девушки по соседству. В попытках предупредить соседку о строительном недочете, способном поставить крест на интимной жизни обоих, Кидо отправляется к ней для серьезного разговора о косметическом ремонте стены. Серьезного разговора не получилось, так как Икуно Эмиру (именно так звали очаровательную красотку) была прекрасно осведомлена о дыре и открыто предложила главному герою взаимное подглядывание друг за другом. Ошалев от натиска юной вуайеристки, которая умело шантажировала его двухсмыленными снимками, Кидо вынужден был пойти у нее на поводу. С этого дня Кидо Тацухико начинает постигать все тонкости и прелести вуайеризма…



Видео: 1280x720, 23.976fps, AVC MPEG4 (H.264), High 10@L5.1 , ~ 1514Kbps avg
Аудио#1: Rus AAC, 48.0KHz, 2ch, ~ 192Kbps avg
Аудио#2: Jap AAC, 48.0KHz, 2ch, ~ 192Kbps avg

MediaInfo
Общее
Уникальный идентификатор : 229915997521282336692622312076216816373 (0xACF835DEDEF2B73FA907CFEEB0A6D2F5)
Полное имя : D:\FassaD\Щелочка (2013)\[FanDub]_Nozoki_Ana_[h264_720p]_[FassaD].mkv
Формат : Matroska
Версия формата : Version 4 / Version 2
Размер файла : 633 Мбайт
Продолжительность : 55 м.
Общий поток : 1580 Кбит/сек
Дата кодирования : UTC 2015-03-02 06:30:10
Программа кодирования : mkvmerge v6.1.0 ('Old Devil') built on Mar 4 2013 09:10:42
Библиотека кодирования : libebml v1.3.0 + libmatroska v1.4.0

Видео
Идентификатор : 1
Формат : AVC
Формат/Информация : Advanced Video Codec
Профиль формата : High 10@L5.1
Параметр CABAC формата : Да
Параметр ReFrames формата : 12 кадров
Идентификатор кодека : V_MPEG4/ISO/AVC
Продолжительность : 55 м.
Ширина : 1280 пикселей
Высота : 720 пикселей
Соотношение сторон : 16:9
Режим частоты кадров : Постоянный
Частота кадров : 23,976 кадра/сек
Цветовое пространство : YUV
Субдискретизация насыщенности : 4:2:0
Битовая глубина : 10 бит
Тип развёртки : Прогрессивная
Заголовок : Hi10p
Библиотека кодирования : x264 core 142 r2409+42 04be48a tMod [10-bit@all X86]
Настройки программы : cabac=1 / ref=12 / deblock=1:-1:-1 / analyse=0x3:0x133 / me=umh / subme=11 / psy=1 / fade_compensate=0.00 / psy_rd=0.30:0.00 / mixed_ref=1 / me_range=24 / chroma_me=1 / trellis=2 / 8x8dct=1 / cqm=0 / deadzone=21,11 / fast_pskip=1 / chroma_qp_offset=-4 / threads=12 / lookahead_threads=3 / sliced_threads=0 / nr=0 / decimate=1 / interlaced=0 / bluray_compat=0 / constrained_intra=0 / fgo=0 / bframes=12 / b_pyramid=2 / b_adapt=2 / b_bias=0 / direct=3 / weightb=1 / open_gop=0 / weightp=2 / keyint=250 / keyint_min=23 / scenecut=40 / intra_refresh=0 / rc_lookahead=60 / rc=crf / mbtree=1 / crf=17.0000 / qcomp=0.60 / qpmin=0:0:0 / qpmax=81:81:81 / qpstep=4 / ip_ratio=1.40 / aq=3:0.80 / aq-sensitivity=10.00 / aq-factor=1.00:1.00:1.00 / aq2=0 / aq3=0
Язык : Japanese
Default : Да
Forced : Нет
Основные цвета : BT.709
Характеристики трансфера : BT.709
Коэффициенты матрицы : BT.709

Аудио #1
Идентификатор : 2
Формат : AAC
Формат/Информация : Advanced Audio Codec
Профиль формата : LC
Идентификатор кодека : A_AAC
Продолжительность : 55 м.
Каналы : 2 канала
Расположение каналов : Front: L R
Частота : 48,0 КГц
Метод сжатия : С потерями
Default : Да
Forced : Нет

Аудио #2
Идентификатор : 3
Формат : AAC
Формат/Информация : Advanced Audio Codec
Профиль формата : LC
Идентификатор кодека : A_AAC
Продолжительность : 55 м.
Каналы : 2 канала
Расположение каналов : Front: L R
Частота : 48,0 КГц
Метод сжатия : С потерями
Задержка видео : 9 мс.
Заголовок : AAC
Язык : Japanese
Default : Нет
Forced : Нет

Совсем низко / Low Down (Джефф Прайсс) [2014, драма, биография, музыка, WEBDLRip] VO
2015-03-27 16:52
Совсем низко / Low Down

Перевод: Любительский (одноголосый) (Lord32x), субтитры: отсутствуют
Формат: WEBDLRip, AVI, XviD, AC3
Страна: США
Режиссер: Джефф Прайсс
Жанр: драма, биография, музыка
Продолжительность: 01:54:19
Год выпуска: 2014
В ролях: Лина Хиди, Эль Фаннинг, Тэрин Мэннинг, Питер Динклэйдж, Тим Дейли, Гленн Клоуз, Джон Хоукс, Калеб Лэндри Джонс, Берн Горман, Фли
Описание: Картина сосредоточится на взаимоотношениях героя с одиннадцатилетней дочерью и расскажет историю сквозь призму детского восприятия — как талантливый и харизматичный Элбани проводит время в коктейль-барах с эксцентричными персонажами.



Видео: 720x304 (2.37:1), 24.000 fps, XviD build 50 ~1483 kbps avg, 0.28 bit/pixel
Аудио: 48 kHz, AC3 Dolby Digital, 3/2 (L,C,R,l,r) + LFE ch, ~384 kbps

Небо и земля: Глава о прошлом / Tenjou Tenge: The Past Chapter [Movie] [RAW] [RUS(int), JAP] [2005, боевые искусства, драма, романтика, этти, DVDRip]
2015-03-27 16:50
Небо и земля: Глава о прошлом / Tenjou Tenge: The Past Chapter


Перевод: Любительский (одноголосый)
Субтитры: Нет

Формат: DVDRip, MKV, H.264, AAC
Страна: Япония
Режиссер: Кавасэ Тосифуми
Жанр: боевые искусства, драма, романтика, этти
Продолжительность: 01:31:59
Год выпуска: 2005

Озвучка: FassaD

Описание: Предыстория ТВ сериала Tenjou Tenge.



Видео: 640x480, 23.976, AVC MPEG4 (x264), High@L3.0 , ~ 1923Kbps avg,
Аудио#1: Rus AAC, 48.0KHz, 2ch, ~ 192Kbps avg
Аудио#2: Jap Vorbis, 48000Hz, 2ch, 160 Kbps avg

MediaInfo

Общее
Уникальный идентификатор : 244778426050164034035596051524802281545 (0xB8269C2C0A44AC14B8422C1E93978049)
Полное имя : H:\ыыы\ццц\FassaD's Projects\04 - Полномежки\2015\22 - Небо и земля - Глава о прошлом\Озвученно\[FanDub]_Tenjou_Tenge - The_Past_Chapter_[480p_h264]_[FassaD].mkv
Формат : Matroska
Версия формата : Version 4 / Version 2
Размер файла : 1,49 Гбайт
Продолжительность : 1 ч. 31 м.
Режим общего битрейта : Переменный
Общий поток : 2318 Кбит/сек
Дата кодирования : UTC 2015-03-21 14:59:39
Программа кодирования : mkvmerge v6.1.0 ('Old Devil') built on Mar 4 2013 09:10:42
Библиотека кодирования : libebml v1.3.0 + libmatroska v1.4.0
Attachment : Yes

Видео
Идентификатор : 1
Формат : MPEG-4 Visual
Профиль формата : Simple@L3
Параметр BVOP формата : Нет
Параметр QPel формата : Нет
Параметр GMC формата : Без точки перехода
Параметр матрицы формата : Default (H.263)
Идентификатор кодека : V_MS/VFW/FOURCC / XVID
Идентификатор кодека/Подсказка : XviD
Продолжительность : 1 ч. 31 м.
Ширина : 640 пикселей
Высота : 480 пикселей
Соотношение сторон : 4:3
Режим частоты кадров : Постоянный
Частота кадров : 23,976 кадра/сек
Цветовое пространство : YUV
Субдискретизация насыщенности : 4:2:0
Битовая глубина : 8 бит
Тип развёртки : Прогрессивная
Метод сжатия : С потерями
Библиотека кодирования : XviD 1.0.3 (UTC 2004-12-20)
Default : Да
Forced : Нет

Аудио #1
Идентификатор : 2
Формат : AAC
Формат/Информация : Advanced Audio Codec
Профиль формата : LC
Идентификатор кодека : A_AAC
Продолжительность : 1 ч. 31 м.
Каналы : 2 канала
Расположение каналов : Front: L R
Частота : 48,0 КГц
Метод сжатия : С потерями
Default : Да
Forced : Нет

Аудио #2
Идентификатор : 3
Формат : Vorbis
Параметр Floor формата : 1
Идентификатор кодека : A_VORBIS
Продолжительность : 1 ч. 31 м.
Вид битрейта : Переменный
Битрейт : 160 Кбит/сек
Каналы : 2 канала
Частота : 48,0 КГц
Метод сжатия : С потерями
Размер потока : 105 Мбайт (7%)
Библиотека кодирования : libVorbis 1.0 (UTC 2002-07-17)
Язык : Japanese
Default : Нет
Forced : Нет

Девушка возвращается одна ночью домой / A Girl Walks Home Alone at Night (Ана Лили Амирпур) [2014, ужасы, триллер, мелодрама, WEB-DLRip] DVO
2015-03-27 16:37
Девушка возвращается одна ночью домой / A Girl Walks Home Alone at Night
«В этом месте каждая ночь похожа на предыдущую»

Перевод: Любительский (двухголосый) [DeadSno & den904]

Cубтитры: отсутствуют

Формат: WEB-DLRip, AVI, XviD, AC3

Страна: США

Режиссер: Ана Лили Амирпур

Жанр: ужасы, триллер, мелодрама

Продолжительность: 01:40:39

Год выпуска: 2014

В ролях: Шейла Ванд, Роум Шаданлу, Араш Маранди, Маршалл Манеш, Можан Марно, Амин Наземзадех, Реза Сиксо Сафаи, Рэй Харатиан, Педж Вахдат

Описание: События разворачиваются в вымышленном иранском городе Бэд Сити, полном проституции и преступлений, смерти и одиночества. Здесь живут вампиры, проститутки, наркоманы, сутенеры, ростовщики и, конечно же, собственный иранский Джеймс Дин.

______________

Видео: 720x304 (2.37:1), 23.976 fps, XviD build 73 ~1684 kbps avg, 0.32 bit/pixel

Аудио #1: Русский: 48 kHz, AC3 Dolby Digital, 2/0 (L,R) ch, ~192 kbps [Любительский (двухголосый)]
Аудио #2: Английский: 48 kHz, AC3 Dolby Digital, 2/0 (L,R) ch, ~192 kbps [Оригинал]